Привет, Гость
Использование защищенного (SSL) соединения

Войти на сайт
Регистрация
Восстановить Пароль

Наша группа в ВК

Правообладателям

Для удаления авторских файлов, пишите по адреcу: [email protected].
Чтобы ваше письмо не было проигнорировано и было обработано автоматической системой удаления авторских раздач, необходимо соблюдать правила оформления текста:
* Присылайте абсолютные адреса ссылок на торрент-раздачи (с табуляцией, с отступами)
* Ни pdf, ни doc файлы не читаются скриптом, за исключением rtf формата

Просьба это учесть при оформлении письма (ем).


Связанные раздачи

:: Детали раздачи
Раздача является мультитрекерной — учтите, количество раздающих не будет совпадать с количеством участников на сайте (скачивание на клиентской стороне зависит от настроек µTorrent клиент программы, настройки -> Включить DHT, Обмен пирами и Поиск лок-х пиров).
Если висит надпись, пиры по нулям - не бойтесь, возможность скачать повторно раздачу - есть. Попробуйте, в случае отказа - прокоментируйте или нажмите на "Позвать скачавших".

Diana Krall - All For You (A Dedication to the Nat King Cole Trio)(1996) 2016 [DSD 128|tracks (Vinyl-Rip)]

Скачать Скачать Magnet-ссылка (альтернативная ссылка для скачивания файла)
Теги jazz, 1996
Описание
Diana Krall - All For You (A Dedication to the Nat King Cole Trio)(1996) 2016 [DSD 128|tracks (Vinyl-Rip)]
Diana Krall - All For You (A Dedication to the Nat King Cole Trio)(1996)
Год: 1996 (reissue 2016)
Лейбл: Impulse! (ORG 006-45 )
Страна: USA
Жанр: Jazz
Продолжительность: 00:54:36

Кодек: DSD 128
Тип рипа: tracks
Формат записи: 1/5.6 MHz
Формат раздачи: 1/5.6 MHz

Треклист:
01. I'm an Errand Girl for Rhythm (2:55)
02. Gee Baby, Ain't I Good to You (4:07)
03. You Call It Madness (4:36)
04. Frim Fram Sauce (5:01)
05. Boulevard of Broken Dreams (6:28)
06. Baby, Baby All the Time (3:34)
07. Hit That Jive, Jack! (4:18)
08. You're Looking at Me (5:33)
09. I'm Through With Love (4:26)
10. 'Deed I Do (3:31)
11. A Blossom Fell (5:12)
12. If I Had You (4:56)

Этот альбом первоначально на пластмассе не выходил. Первый раз его издали на виниле в 2009 году. Судя по информации на дискогсе, это издание от 2016 года сделано с того же мастера, что и 2009, но только на 45 оборотах. Издание 2009 года уже есть в клубе, за что говорим спасибо Винилычу. Здесь несколько другой аппарат и опять же однобитовый формат. Есть из чего выбрать.

Дополнительная информация:

Код: выделить всеGeneral
Complete name                            : J:\torrents\Diana Krall - 1996 - All for You\01. I'm an Errand Girl for Rhythm.dsf
Format                                   : DSF
Format/Info                              : Direct Stream Digital Stream File
Format version                           : Version 1
File size                                : 236 MiB
Duration                                 : 2 min 55 s
Overall bit rate                         : 11.3 Mb/s
Album replay gain                        : -2.76 dB
Album replay gain peak                   : 1.339177
Album                                    : All For You (A Dedication to the Nat King Cole Trio)
Track name                               : I'm an Errand Girl for Rhythm
Track name/Position                      : 1
Track name/Total                         : 12
Performer                                : Diana Krall
Publisher                                : https://www.discogs.com/Diana-Krall-All-For-You-A-Dedication-To-The-Nat-King-Cole-Trio/release/8269191
Genre                                    : Jazz
Recorded date                            : 1996
Writing library                          : KORG AudioGate ver.4.5.2 (Windows 7)
Cover                                    : Yes
Cover type                               : Cover (front)
Cover MIME                               : image/jpeg
Comment                                  : AT-OC9/III -> Yamaha GT-750 -> Lehmann Audio Black Cube SE -> Korg MR-2000S (интерконнекты Yamaha и AudioQuest Evergreen).

Audio
Format                                   : DSD
Format/Info                              : Direct Stream Digital
Commercial name                          : DSD128
Format settings                          : Little
Duration                                 : 2 min 55 s
Bit rate                                 : 11.3 Mb/s
Channel(s)                               : 2 channels
Channel layout                           : L R
Sampling rate                            : 5 645 kHz
Compression mode                         : Lossless
Replay gain                              : -2.76 dB
Replay gain peak                         : 1.339177
Stream size                              : 236 MiB (100%)

General
Complete name                            : J:\torrents\Diana Krall - 1996 - All for You\02. Gee Baby Ain't I Good to You.dsf
Format                                   : DSF
Format/Info                              : Direct Stream Digital Stream File
Format version                           : Version 1
File size                                : 333 MiB
Duration                                 : 4 min 7 s
Overall bit rate                         : 11.3 Mb/s
Album replay gain                        : -2.76 dB
Album replay gain peak                   : 1.339177
Album                                    : All For You (A Dedication to the Nat King Cole Trio)
Track name                               : Gee Baby, Ain't I Good to You
Track name/Position                      : 2
Track name/Total                         : 12
Performer                                : Diana Krall
Publisher                                : https://www.discogs.com/Diana-Krall-All-For-You-A-Dedication-To-The-Nat-King-Cole-Trio/release/8269191
Genre                                    : Jazz
Recorded date                            : 1996
Writing library                          : KORG AudioGate ver.4.5.2 (Windows 7)
Cover                                    : Yes
Cover type                               : Cover (front)
Cover MIME                               : image/jpeg
Comment                                  : AT-OC9/III -> Yamaha GT-750 -> Lehmann Audio Black Cube SE -> Korg MR-2000S (интерконнекты Yamaha и AudioQuest Evergreen).

Audio
Format                                   : DSD
Format/Info                              : Direct Stream Digital
Commercial name                          : DSD128
Format settings                          : Little
Duration                                 : 4 min 7 s
Bit rate                                 : 11.3 Mb/s
Channel(s)                               : 2 channels
Channel layout                           : L R
Sampling rate                            : 5 645 kHz
Compression mode                         : Lossless
Replay gain                              : -2.76 dB
Replay gain peak                         : 1.339177
Stream size                              : 333 MiB (100%)

General
Complete name                            : J:\torrents\Diana Krall - 1996 - All for You\03. You Call It Madness.dsf
Format                                   : DSF
Format/Info                              : Direct Stream Digital Stream File
Format version                           : Version 1
File size                                : 372 MiB
Duration                                 : 4 min 35 s
Overall bit rate                         : 11.3 Mb/s
Album replay gain                        : -2.76 dB
Album replay gain peak                   : 1.339177
Album                                    : All For You (A Dedication to the Nat King Cole Trio)
Track name                               : You Call It Madness
Track name/Position                      : 3
Track name/Total                         : 12
Performer                                : Diana Krall
Publisher                                : https://www.discogs.com/Diana-Krall-All-For-You-A-Dedication-To-The-Nat-King-Cole-Trio/release/8269191
Genre                                    : Jazz
Recorded date                            : 1996
Writing library                          : KORG AudioGate ver.4.5.2 (Windows 7)
Cover                                    : Yes
Cover type                               : Cover (front)
Cover MIME                               : image/jpeg
Comment                                  : AT-OC9/III -> Yamaha GT-750 -> Lehmann Audio Black Cube SE -> Korg MR-2000S (интерконнекты Yamaha и AudioQuest Evergreen).

Audio
Format                                   : DSD
Format/Info                              : Direct Stream Digital
Commercial name                          : DSD128
Format settings                          : Little
Duration                                 : 4 min 35 s
Bit rate                                 : 11.3 Mb/s
Channel(s)                               : 2 channels
Channel layout                           : L R
Sampling rate                            : 5 645 kHz
Compression mode                         : Lossless
Replay gain                              : -2.76 dB
Replay gain peak                         : 1.339177
Stream size                              : 371 MiB (100%)

General
Complete name                            : J:\torrents\Diana Krall - 1996 - All for You\04. Frim Fram Sauce.dsf
Format                                   : DSF
Format/Info                              : Direct Stream Digital Stream File
Format version                           : Version 1
File size                                : 405 MiB
Duration                                 : 5 min 0 s
Overall bit rate                         : 11.3 Mb/s
Album replay gain                        : -2.76 dB
Album replay gain peak                   : 1.339177
Album                                    : All For You (A Dedication to the Nat King Cole Trio)
Track name                               : Frim Fram Sauce
Track name/Position                      : 4
Track name/Total                         : 12
Performer                                : Diana Krall
Publisher                                : https://www.discogs.com/Diana-Krall-All-For-You-A-Dedication-To-The-Nat-King-Cole-Trio/release/8269191
Genre                                    : Jazz
Recorded date                            : 1996
Writing library                          : KORG AudioGate ver.4.5.2 (Windows 7)
Cover                                    : Yes
Cover type                               : Cover (front)
Cover MIME                               : image/jpeg
Comment                                  : AT-OC9/III -> Yamaha GT-750 -> Lehmann Audio Black Cube SE -> Korg MR-2000S (интерконнекты Yamaha и AudioQuest Evergreen).

Audio
Format                                   : DSD
Format/Info                              : Direct Stream Digital
Commercial name                          : DSD128
Format settings                          : Little
Duration                                 : 5 min 0 s
Bit rate                                 : 11.3 Mb/s
Channel(s)                               : 2 channels
Channel layout                           : L R
Sampling rate                            : 5 645 kHz
Compression mode                         : Lossless
Replay gain                              : -2.76 dB
Replay gain peak                         : 1.339177
Stream size                              : 405 MiB (100%)

General
Complete name                            : J:\torrents\Diana Krall - 1996 - All for You\05. Boulevard of Broken Dreams.dsf
Format                                   : DSF
Format/Info                              : Direct Stream Digital Stream File
Format version                           : Version 1
File size                                : 522 MiB
Duration                                 : 6 min 27 s
Overall bit rate                         : 11.3 Mb/s
Album replay gain                        : -2.76 dB
Album replay gain peak                   : 1.339177
Album                                    : All For You (A Dedication to the Nat King Cole Trio)
Track name                               : Boulevard of Broken Dreams
Track name/Position                      : 5
Track name/Total                         : 12
Performer                                : Diana Krall
Publisher                                : https://www.discogs.com/Diana-Krall-All-For-You-A-Dedication-To-The-Nat-King-Cole-Trio/release/8269191
Genre                                    : Jazz
Recorded date                            : 1996
Writing library                          : KORG AudioGate ver.4.5.2 (Windows 7)
Cover                                    : Yes
Cover type                               : Cover (front)
Cover MIME                               : image/jpeg
Comment                                  : AT-OC9/III -> Yamaha GT-750 -> Lehmann Audio Black Cube SE -> Korg MR-2000S (интерконнекты Yamaha и AudioQuest Evergreen).

Audio
Format                                   : DSD
Format/Info                              : Direct Stream Digital
Commercial name                          : DSD128
Format settings                          : Little
Duration                                 : 6 min 27 s
Bit rate                                 : 11.3 Mb/s
Channel(s)                               : 2 channels
Channel layout                           : L R
Sampling rate                            : 5 645 kHz
Compression mode                         : Lossless
Replay gain                              : -2.76 dB
Replay gain peak                         : 1.339177
Stream size                              : 522 MiB (100%)

General
Complete name                            : J:\torrents\Diana Krall - 1996 - All for You\06. Baby Baby All the Time.dsf
Format                                   : DSF
Format/Info                              : Direct Stream Digital Stream File
Format version                           : Version 1
File size                                : 288 MiB
Duration                                 : 3 min 34 s
Overall bit rate                         : 11.3 Mb/s
Album replay gain                        : -2.76 dB
Album replay gain peak                   : 1.339177
Album                                    : All For You (A Dedication to the Nat King Cole Trio)
Track name                               : Baby, Baby All the Time
Track name/Position                      : 6
Track name/Total                         : 12
Performer                                : Diana Krall
Publisher                                : https://www.discogs.com/Diana-Krall-All-For-You-A-Dedication-To-The-Nat-King-Cole-Trio/release/8269191
Genre                                    : Jazz
Recorded date                            : 1996
Writing library                          : KORG AudioGate ver.4.5.2 (Windows 7)
Cover                                    : Yes
Cover type                               : Cover (front)
Cover MIME                               : image/jpeg
Comment                                  : AT-OC9/III -> Yamaha GT-750 -> Lehmann Audio Black Cube SE -> Korg MR-2000S (интерконнекты Yamaha и AudioQuest Evergreen).

Audio
Format                                   : DSD
Format/Info                              : Direct Stream Digital
Commercial name                          : DSD128
Format settings                          : Little
Duration                                 : 3 min 34 s
Bit rate                                 : 11.3 Mb/s
Channel(s)                               : 2 channels
Channel layout                           : L R
Sampling rate                            : 5 645 kHz
Compression mode                         : Lossless
Replay gain                              : -2.76 dB
Replay gain peak                         : 1.339177
Stream size                              : 288 MiB (100%)

General
Complete name                            : J:\torrents\Diana Krall - 1996 - All for You\07. Hit That Jive Jack!.dsf
Format                                   : DSF
Format/Info                              : Direct Stream Digital Stream File
Format version                           : Version 1
File size                                : 347 MiB
Duration                                 : 4 min 17 s
Overall bit rate                         : 11.3 Mb/s
Album replay gain                        : -2.76 dB
Album replay gain peak                   : 1.339177
Album                                    : All For You (A Dedication to the Nat King Cole Trio)
Track name                               : Hit That Jive, Jack!
Track name/Position                      : 7
Track name/Total                         : 12
Performer                                : Diana Krall
Publisher                                : https://www.discogs.com/Diana-Krall-All-For-You-A-Dedication-To-The-Nat-King-Cole-Trio/release/8269191
Genre                                    : Jazz
Recorded date                            : 1996
Writing library                          : KORG AudioGate ver.4.5.2 (Windows 7)
Cover                                    : Yes
Cover type                               : Cover (front)
Cover MIME                               : image/jpeg
Comment                                  : AT-OC9/III -> Yamaha GT-750 -> Lehmann Audio Black Cube SE -> Korg MR-2000S (интерконнекты Yamaha и AudioQuest Evergreen).

Audio
Format                                   : DSD
Format/Info                              : Direct Stream Digital
Commercial name                          : DSD128
Format settings                          : Little
Duration                                 : 4 min 17 s
Bit rate                                 : 11.3 Mb/s
Channel(s)                               : 2 channels
Channel layout                           : L R
Sampling rate                            : 5 645 kHz
Compression mode                         : Lossless
Replay gain                              : -2.76 dB
Replay gain peak                         : 1.339177
Stream size                              : 347 MiB (100%)

General
Complete name                            : J:\torrents\Diana Krall - 1996 - All for You\08. You're Looking at Me.dsf
Format                                   : DSF
Format/Info                              : Direct Stream Digital Stream File
Format version                           : Version 1
File size                                : 448 MiB
Duration                                 : 5 min 32 s
Overall bit rate                         : 11.3 Mb/s
Album replay gain                        : -2.76 dB
Album replay gain peak                   : 1.339177
Album                                    : All For You (A Dedication to the Nat King Cole Trio)
Track name                               : You're Looking at Me
Track name/Position                      : 8
Track name/Total                         : 12
Performer                                : Diana Krall
Publisher                                : https://www.discogs.com/Diana-Krall-All-For-You-A-Dedication-To-The-Nat-King-Cole-Trio/release/8269191
Genre                                    : Jazz
Recorded date                            : 1996
Writing library                          : KORG AudioGate ver.4.5.2 (Windows 7)
Cover                                    : Yes
Cover type                               : Cover (front)
Cover MIME                               : image/jpeg
Comment                                  : AT-OC9/III -> Yamaha GT-750 -> Lehmann Audio Black Cube SE -> Korg MR-2000S (интерконнекты Yamaha и AudioQuest Evergreen).

Audio
Format                                   : DSD
Format/Info                              : Direct Stream Digital
Commercial name                          : DSD128
Format settings                          : Little
Duration                                 : 5 min 32 s
Bit rate                                 : 11.3 Mb/s
Channel(s)                               : 2 channels
Channel layout                           : L R
Sampling rate                            : 5 645 kHz
Compression mode                         : Lossless
Replay gain                              : -2.76 dB
Replay gain peak                         : 1.339177
Stream size                              : 448 MiB (100%)

General
Complete name                            : J:\torrents\Diana Krall - 1996 - All for You\09. I'm Through With Love.dsf
Format                                   : DSF
Format/Info                              : Direct Stream Digital Stream File
Format version                           : Version 1
File size                                : 358 MiB
Duration                                 : 4 min 25 s
Overall bit rate                         : 11.3 Mb/s
Album replay gain                        : -2.76 dB
Album replay gain peak                   : 1.339177
Album                                    : All For You (A Dedication to the Nat King Cole Trio)
Track name                               : I'm Through With Love
Track name/Position                      : 9
Track name/Total                         : 12
Performer                                : Diana Krall
Publisher                                : https://www.discogs.com/Diana-Krall-All-For-You-A-Dedication-To-The-Nat-King-Cole-Trio/release/8269191
Genre                                    : Jazz
Recorded date                            : 1996
Writing library                          : KORG AudioGate ver.4.5.2 (Windows 7)
Cover                                    : Yes
Cover type                               : Cover (front)
Cover MIME                               : image/jpeg
Comment                                  : AT-OC9/III -> Yamaha GT-750 -> Lehmann Audio Black Cube SE -> Korg MR-2000S (интерконнекты Yamaha и AudioQuest Evergreen).

Audio
Format                                   : DSD
Format/Info                              : Direct Stream Digital
Commercial name                          : DSD128
Format settings                          : Little
Duration                                 : 4 min 25 s
Bit rate                                 : 11.3 Mb/s
Channel(s)                               : 2 channels
Channel layout                           : L R
Sampling rate                            : 5 645 kHz
Compression mode                         : Lossless
Replay gain                              : -2.76 dB
Replay gain peak                         : 1.339177
Stream size                              : 358 MiB (100%)

General
Complete name                            : J:\torrents\Diana Krall - 1996 - All for You\10. 'Deed I Do.dsf
Format                                   : DSF
Format/Info                              : Direct Stream Digital Stream File
Format version                           : Version 1
File size                                : 284 MiB
Duration                                 : 3 min 30 s
Overall bit rate                         : 11.3 Mb/s
Album replay gain                        : -2.76 dB
Album replay gain peak                   : 1.339177
Album                                    : All For You (A Dedication to the Nat King Cole Trio)
Track name                               : 'Deed I Do
Track name/Position                      : 10
Track name/Total                         : 12
Performer                                : Diana Krall
Publisher                                : https://www.discogs.com/Diana-Krall-All-For-You-A-Dedication-To-The-Nat-King-Cole-Trio/release/8269191
Genre                                    : Jazz
Recorded date                            : 1996
Writing library                          : KORG AudioGate ver.4.5.2 (Windows 7)
Cover                                    : Yes
Cover type                               : Cover (front)
Cover MIME                               : image/jpeg
Comment                                  : AT-OC9/III -> Yamaha GT-750 -> Lehmann Audio Black Cube SE -> Korg MR-2000S (интерконнекты Yamaha и AudioQuest Evergreen).

Audio
Format                                   : DSD
Format/Info                              : Direct Stream Digital
Commercial name                          : DSD128
Format settings                          : Little
Duration                                 : 3 min 30 s
Bit rate                                 : 11.3 Mb/s
Channel(s)                               : 2 channels
Channel layout                           : L R
Sampling rate                            : 5 645 kHz
Compression mode                         : Lossless
Replay gain                              : -2.76 dB
Replay gain peak                         : 1.339177
Stream size                              : 284 MiB (100%)

General
Complete name                            : J:\torrents\Diana Krall - 1996 - All for You\11. A Blossom Fell.dsf
Format                                   : DSF
Format/Info                              : Direct Stream Digital Stream File
Format version                           : Version 1
File size                                : 420 MiB
Duration                                 : 5 min 12 s
Overall bit rate                         : 11.3 Mb/s
Album replay gain                        : -2.76 dB
Album replay gain peak                   : 1.339177
Album                                    : All For You (A Dedication to the Nat King Cole Trio)
Track name                               : A Blossom Fell
Track name/Position                      : 11
Track name/Total                         : 12
Performer                                : Diana Krall
Publisher                                : https://www.discogs.com/Diana-Krall-All-For-You-A-Dedication-To-The-Nat-King-Cole-Trio/release/8269191
Genre                                    : Jazz
Recorded date                            : 1996
Writing library                          : KORG AudioGate ver.4.5.2 (Windows 7)
Cover                                    : Yes
Cover type                               : Cover (front)
Cover MIME                               : image/jpeg
Comment                                  : AT-OC9/III -> Yamaha GT-750 -> Lehmann Audio Black Cube SE -> Korg MR-2000S (интерконнекты Yamaha и AudioQuest Evergreen).

Audio
Format                                   : DSD
Format/Info                              : Direct Stream Digital
Commercial name                          : DSD128
Format settings                          : Little
Duration                                 : 5 min 12 s
Bit rate                                 : 11.3 Mb/s
Channel(s)                               : 2 channels
Channel layout                           : L R
Sampling rate                            : 5 645 kHz
Compression mode                         : Lossless
Replay gain                              : -2.76 dB
Replay gain peak                         : 1.339177
Stream size                              : 420 MiB (100%)

General
Complete name                            : J:\torrents\Diana Krall - 1996 - All for You\12. If I Had You.dsf
Format                                   : DSF
Format/Info                              : Direct Stream Digital Stream File
Format version                           : Version 1
File size                                : 398 MiB
Duration                                 : 4 min 55 s
Overall bit rate                         : 11.3 Mb/s
Album replay gain                        : -2.76 dB
Album replay gain peak                   : 1.339177
Album                                    : All For You (A Dedication to the Nat King Cole Trio)
Track name                               : If I Had You
Track name/Position                      : 12
Track name/Total                         : 12
Performer                                : Diana Krall
Publisher                                : https://www.discogs.com/Diana-Krall-All-For-You-A-Dedication-To-The-Nat-King-Cole-Trio/release/8269191
Genre                                    : Jazz
Recorded date                            : 1996
Writing library                          : KORG AudioGate ver.4.5.2 (Windows 7)
Cover                                    : Yes
Cover type                               : Cover (front)
Cover MIME                               : image/jpeg
Comment                                  : AT-OC9/III -> Yamaha GT-750 -> Lehmann Audio Black Cube SE -> Korg MR-2000S (интерконнекты Yamaha и AudioQuest Evergreen).

Audio
Format                                   : DSD
Format/Info                              : Direct Stream Digital
Commercial name                          : DSD128
Format settings                          : Little
Duration                                 : 4 min 55 s
Bit rate                                 : 11.3 Mb/s
Channel(s)                               : 2 channels
Channel layout                           : L R
Sampling rate                            : 5 645 kHz
Compression mode                         : Lossless
Replay gain                              : -2.76 dB
Replay gain peak                         : 1.339177
Stream size                              : 398 MiB (100%)

General
Complete name                            : J:\torrents\Diana Krall - 1996 - All for You\cover.jpg
Format                                   : JPEG
File size                                : 111 KiB

Image
Format                                   : JPEG
Width                                    : 600 pixels
Height                                   : 600 pixels
Color space                              : YUV
Chroma subsampling                       : 4:4:4
Bit depth                                : 8 bits
Compression mode                         : Lossy
Stream size                              : 111 KiB (100%)
Категория Музыка / Мультимедиа RSS лента
Добавлен (1 месяц назад)
Просмотров 423 раз (a)
Взят 11 раз (a)
Файлы 13, 4.31 GB (4 624 151 300 байт)
Раздал ViKa  (Искать торренты)
Участники
Завершено: 0 (0)
Просматривают

« St. Concrete - Listen Past Me (2019) Modern Cathedrals [FLAC|Lossless|WEB-DL|tracks] -†- ¿? -†- Eusebeia, Atiq Arlow - Transfiguration EP (2020) Mindtrick Records [FLAC|Lossless|WEB-DL|tracks] »

:: Список Комментариев
Нет комментариев.

 Нет комментариев
Самые активные релизы за неделю
Музыка / Мультимедиа
Популярные хиты в классической обработке (15) ( Pop / 2020 )
  • Популярные хиты в классической обработке (15) ( Pop / 2020 )
  • Patrick Yandall - Discography / Jazz
  • Dream Improvisation: Romantic Jazz Music ( Jazz / 2020 )
  • Radiorama - Stars Hits. Новое любовное настроение ( Disco / 2006 )
  • Русская дискотека (35) ( Поп / 2020 )
  • Paul Mauriat - O Melhor De Paul Mauriat - Collection (Vinyl Rip) ( Instrumental / 1984 )
  • Shyyne - Go Your Own Way ( Rock / 2020 )
  • Infinite Resonance (Vol.2, WEB) ( Downtempo / 2020 )
  • DJ. Anatolevich - Discoteka Cassanova Italo Mix (Part 1-240) / Disco
  • Summer Essentials ( House / 2020 )
  • Green Atmospheric Sound ( Ambient / 2020 )
  • Мумий Тролль - The Best (2014) Compilation [FLAC|Lossless|WEB-DL|tracks]

Счетчики
Яндекс.Метрика Анализ сайта hit-muzik.ru

Поделится ссылкой