Привет, Гость
Использование защищенного (SSL) соединения

Войти на сайт
Регистрация
Восстановить Пароль

Наша группа в ВК

Копилка сайта

Правообладателям

Для удаления авторских файлов, пишите по адреcу: [email protected].
Чтобы ваше письмо не было проигнорировано и было обработано автоматической системой удаления авторских раздач, необходимо соблюдать правила оформления текста:
* Присылайте абсолютные адреса ссылок на торрент-раздачи (с табуляцией, с отступами)
* Ни pdf, ни doc файлы не читаются скриптом, за исключением rtf формата

Просьба это учесть при оформлении письма (ем).


Связанные раздачи
Загрузка / Обновление

:: Детали раздачи
Раздача является мультитрекерной — учтите, количество раздающих не будет совпадать с количеством участников на сайте (скачивание на клиентской стороне зависит от настроек µTorrent клиент программы, настройки -> Включить DHT, Обмен пирами и Поиск лок-х пиров).
Если висит надпись, пиры по нулям - не бойтесь, возможность скачать повторно раздачу - есть. Попробуйте, в случае отказа - прокоментируйте или нажмите на "Позвать скачавших".

Electro Swing Of Spirit (2012) 4CD Box [FLAC|Lossless]

Скачать Скачать торрент источник 1 Magnet-ссылка (альтернативная ссылка для скачивания файла)
Теги jazz, nu jazz, future jazz, acid jazz, modern jazz, 2012
Описание
 Electro Swing Of Spirit (2012) 4CD Box [FLAC|Lossless]
Various Artists - Electro Swing Of Spirit (2012) 4CD Box
Страна: Various Country
Страна-производитель диска: France
Жанр: Jazz, Nu Jazz, Future Jazz, Acid Jazz, Modern Jazz
Год издания: 2012
Издатель (лейбл): Wagram Music
Номер по каталогу: 3254072
Аудиокодек: FLAC (*.flac)
Тип рипа: track+.cue
Битрейт аудио:lossless
Источник (релизер): oleandris
Наличие сканов в содержимом раздачи: Yes
Продолжительность: 05:12:53

Описание:Электро свинг, или свинг хаус, это музыкальный жанр, который сочетает в себе влияние винтажного или современного свинга и джаза, смешанного с хаусом, хип-хопом и электронной танцевальной музыкой. В группу электро-свинга обычно входят певцы, музыканты, играющие на традиционных джазовых инструментах (труба, тромбон, кларнет, саксофон) и, по крайней мере, один диджей.
Слушателей настоящего сборника ожидает настоящая электро-танцевальная энергия. В сборнике треки, связанные с использованием множества различных инструментов. Родос, гитара, бас, настоящие рожки, вы можете ожидать действительно полноценного живого звучания, когда окунетесь в этот мир Electro Swing Of Spirit.

CD1

Код: выделить все
Exact Audio Copy V1.0 beta 1 from 15. November 2010

EAC extraction logfile from 5. October 2012, 10:20

Various Artists / Electro Swing Spirit CD1

Used drive  : ASUS    DRW-24B3ST   Adapter: 3  ID: 0

Read mode               : Secure
Utilize accurate stream : Yes
Defeat audio cache      : Yes
Make use of C2 pointers : No

Read offset correction                      : 6
Overread into Lead-In and Lead-Out          : No
Fill up missing offset samples with silence : Yes
Delete leading and trailing silent blocks   : No
Null samples used in CRC calculations       : Yes
Used interface                              : Native Win32 interface for Win NT & 2000
Gap handling                                : Appended to previous track

Used output format              : User Defined Encoder
Selected bitrate                : 1024 kBit/s
Quality                         : High
Add ID3 tag                     : No
Command line compressor         : C:\Program Files\Exact Audio Copy\Flac\flac.exe
Additional command line options : -8 -V -T "ARTIST=%a" -T "TITLE=%t" -T "ALBUM=%g" -T "DATE=%y" -T "TRACKNUMBER=%n" -T "GENRE=%m" -T "COMMENT=ripped by Oleandris" %s

TOC of the extracted CD

     Track |   Start  |  Length  | Start sector | End sector
    ---------------------------------------------------------
        1  |  0:00.00 |  3:46.17 |         0    |    16966
        2  |  3:46.17 |  3:24.44 |     16967    |    32310
        3  |  7:10.61 |  3:31.61 |     32311    |    48196
        4  | 10:42.47 |  4:07.36 |     48197    |    66757
        5  | 14:50.08 |  1:58.65 |     66758    |    75672
        6  | 16:48.73 |  3:12.45 |     75673    |    90117
        7  | 20:01.43 |  2:47.54 |     90118    |   102696
        8  | 22:49.22 |  2:52.71 |    102697    |   115667
        9  | 25:42.18 |  3:04.69 |    115668    |   129536
       10  | 28:47.12 |  4:39.41 |    129537    |   150502
       11  | 33:26.53 |  5:21.01 |    150503    |   174578
       12  | 38:47.54 |  5:11.11 |    174579    |   197914
       13  | 43:58.65 |  4:30.27 |    197915    |   218191
       14  | 48:29.17 |  5:05.32 |    218192    |   241098
       15  | 53:34.49 |  4:06.26 |    241099    |   259574
       16  | 57:41.00 |  3:51.45 |    259575    |   276944
       17  | 61:32.45 |  4:14.70 |    276945    |   296064
       18  | 65:47.40 |  3:29.23 |    296065    |   311762
       19  | 69:16.63 |  3:17.72 |    311763    |   326609
       20  | 72:34.60 |  6:28.46 |    326610    |   355755

Track  1

     Filename F:\ЗАГРУЗКИ\ Electro Swing Of Spirit 4CD Box (2012)\CD1\01. Caravan Palace - Jolie Coquine.wav

     Pre-gap length  0:00:02.00

     Peak level 85.0 %
     Extraction speed 3.7 X
     Track quality 100.0 %
     Test CRC 2F031BA6
     Copy CRC 2F031BA6
     Track not present in AccurateRip
     Copy OK

Track  2

     Filename F:\ЗАГРУЗКИ\ Electro Swing Of Spirit 4CD Box (2012)\CD1\02. Mr. Scruff - Get A Move On.wav

     Peak level 97.7 %
     Extraction speed 4.0 X
     Track quality 100.0 %
     Test CRC AC8D017D
     Copy CRC AC8D017D
     Track not present in AccurateRip
     Copy OK

Track  3

     Filename F:\ЗАГРУЗКИ\ Electro Swing Of Spirit 4CD Box (2012)\CD1\03. Tape Five - Madame Coquette [Feat. Yuliet Topaz - Aerophon Mix].wav

     Peak level 83.5 %
     Extraction speed 4.3 X
     Track quality 100.0 %
     Test CRC D01791EA
     Copy CRC D01791EA
     Track not present in AccurateRip
     Copy OK

Track  4

     Filename F:\ЗАГРУЗКИ\ Electro Swing Of Spirit 4CD Box (2012)\CD1\04. Belleruche - Minor Swing.wav

     Peak level 97.7 %
     Extraction speed 4.7 X
     Track quality 100.0 %
     Test CRC B5FACD59
     Copy CRC B5FACD59
     Track not present in AccurateRip
     Copy OK

Track  5

     Filename F:\ЗАГРУЗКИ\ Electro Swing Of Spirit 4CD Box (2012)\CD1\05. The Jivers - Move On Girl [The Swing Remix].wav

     Peak level 97.7 %
     Extraction speed 2.9 X
     Track quality 99.9 %
     Test CRC 52D46EB0
     Copy CRC 52D46EB0
     Track not present in AccurateRip
     Copy OK

Track  6

     Filename F:\ЗАГРУЗКИ\ Electro Swing Of Spirit 4CD Box (2012)\CD1\06. Analogik - Gypsy Doodle.wav

     Peak level 97.7 %
     Extraction speed 3.7 X
     Track quality 99.9 %
     Test CRC 431659CB
     Copy CRC 431659CB
     Track not present in AccurateRip
     Copy OK

Track  7

     Filename F:\ЗАГРУЗКИ\ Electro Swing Of Spirit 4CD Box (2012)\CD1\07. Nekta - Here's Us.wav

     Peak level 97.7 %
     Extraction speed 3.6 X
     Track quality 99.9 %
     Test CRC 0F310C6E
     Copy CRC 0F310C6E
     Track not present in AccurateRip
     Copy OK

Track  8

     Filename F:\ЗАГРУЗКИ\ Electro Swing Of Spirit 4CD Box (2012)\CD1\08. Biboulakis - If Only Alarms Didn't Ring [Feat. Nina Zeitlin - David Jones Radio Edit].wav

     Peak level 82.3 %
     Extraction speed 5.1 X
     Track quality 100.0 %
     Test CRC 7598C728
     Copy CRC 7598C728
     Track not present in AccurateRip
     Copy OK

Track  9

     Filename F:\ЗАГРУЗКИ\ Electro Swing Of Spirit 4CD Box (2012)\CD1\09. Spark Arrester - Jazz Pearl [Blend Aka Mishkin Remix].wav

     Peak level 97.7 %
     Extraction speed 5.3 X
     Track quality 100.0 %
     Test CRC 6CBDF53A
     Copy CRC 6CBDF53A
     Track not present in AccurateRip
     Copy OK

Track 10

     Filename F:\ЗАГРУЗКИ\ Electro Swing Of Spirit 4CD Box (2012)\CD1\10. Rube & Dusty - Big Band Jump Parts 3 & 4.wav

     Peak level 96.1 %
     Extraction speed 5.9 X
     Track quality 100.0 %
     Test CRC 10AABFE2
     Copy CRC 10AABFE2
     Track not present in AccurateRip
     Copy OK

Track 11

     Filename F:\ЗАГРУЗКИ\ Electro Swing Of Spirit 4CD Box (2012)\CD1\11. Skeewiff - Coming Home Baby.wav

     Peak level 97.7 %
     Extraction speed 6.3 X
     Track quality 100.0 %
     Test CRC 2E3F6D2B
     Copy CRC 2E3F6D2B
     Track not present in AccurateRip
     Copy OK

Track 12

     Filename F:\ЗАГРУЗКИ\ Electro Swing Of Spirit 4CD Box (2012)\CD1\12. Club Des Belugas - Dibidy Bop [Feat. Brenda Boykin].wav

     Peak level 97.7 %
     Extraction speed 5.4 X
     Track quality 99.9 %
     Test CRC F94C2FC2
     Copy CRC F94C2FC2
     Track not present in AccurateRip
     Copy OK

Track 13

     Filename F:\ЗАГРУЗКИ\ Electro Swing Of Spirit 4CD Box (2012)\CD1\13. Swing Republic - Any Old Thing [Feat. Tommy Dorsey - Elektro Mix].wav

     Peak level 94.2 %
     Extraction speed 6.7 X
     Track quality 100.0 %
     Test CRC EDE35897
     Copy CRC EDE35897
     Track not present in AccurateRip
     Copy OK

Track 14

     Filename F:\ЗАГРУЗКИ\ Electro Swing Of Spirit 4CD Box (2012)\CD1\14. Benny Berigan - Snake Charmer.wav

     Peak level 97.7 %
     Extraction speed 7.0 X
     Track quality 100.0 %
     Test CRC ED6EA83E
     Copy CRC ED6EA83E
     Track not present in AccurateRip
     Copy OK

Track 15

     Filename F:\ЗАГРУЗКИ\ Electro Swing Of Spirit 4CD Box (2012)\CD1\15. Goldfish - Wet Welly.wav

     Peak level 97.7 %
     Extraction speed 7.0 X
     Track quality 100.0 %
     Test CRC 58B7F79C
     Copy CRC 58B7F79C
     Track not present in AccurateRip
     Copy OK

Track 16

     Filename F:\ЗАГРУЗКИ\ Electro Swing Of Spirit 4CD Box (2012)\CD1\16. Sacages Y Suefo - Svvyngsvvyng.wav

     Peak level 97.7 %
     Extraction speed 7.1 X
     Track quality 100.0 %
     Test CRC 6B360ED0
     Copy CRC 6B360ED0
     Track not present in AccurateRip
     Copy OK

Track 17

     Filename F:\ЗАГРУЗКИ\ Electro Swing Of Spirit 4CD Box (2012)\CD1\17. Iain Mackenzie - All Aboard.wav

     Peak level 97.7 %
     Extraction speed 7.2 X
     Track quality 100.0 %
     Test CRC 84191F89
     Copy CRC 84191F89
     Track not present in AccurateRip
     Copy OK

Track 18

     Filename F:\ЗАГРУЗКИ\ Electro Swing Of Spirit 4CD Box (2012)\CD1\18. Sweet Tooth - Venus In Hollywood [6u5 Remix].wav

     Peak level 97.7 %
     Extraction speed 7.3 X
     Track quality 100.0 %
     Test CRC 9C17086D
     Copy CRC 9C17086D
     Track not present in AccurateRip
     Copy OK

Track 19

     Filename F:\ЗАГРУЗКИ\ Electro Swing Of Spirit 4CD Box (2012)\CD1\19. Shazz Man - Jelly Belly.wav

     Peak level 97.7 %
     Extraction speed 7.6 X
     Track quality 100.0 %
     Test CRC 97CE21F7
     Copy CRC 97CE21F7
     Track not present in AccurateRip
     Copy OK

Track 20

     Filename F:\ЗАГРУЗКИ\ Electro Swing Of Spirit 4CD Box (2012)\CD1\20. Dirty Sole - Skattered Jazz.wav

     Peak level 97.7 %
     Extraction speed 8.2 X
     Track quality 100.0 %
     Test CRC FA2447C3
     Copy CRC FA2447C3
     Track not present in AccurateRip
     Copy OK

None of the tracks are present in the AccurateRip

No errors occurred

End of status report

==== Log checksum 57FCF70B3B123E7880A75F5FB241697F2882CC3A669D44B16705940AA3E7141A ====
Категория Музыка / Мультимедиа RSS лента
Добавлен (1 месяц назад)
Просмотров 87 раз (a)
Взят 6 раз (a)
Файлы 114, 2.14 GB (2 292 727 900 байт)
Раздал ViKa  (Искать торренты)
Участники
Завершено: 0 (0)
Просматривают

« Spring (Summer) Beatport Singles Vol.3 (2014) [MP3|320 кб/с] -†- ¿? -†- Bebel Gilberto - Tanto Tempo Remixes (2001) Digipak [FLAC|Lossless|tracks + .cue] »

:: Список Комментариев
Нет комментариев.

 Нет комментариев
Самые активные релизы за неделю
Нет релизов к показу

Счетчики
Яндекс.Метрика Анализ сайта hit-muzik.ru

Поделится ссылкой