Привет, Гость

Войти на сайт
Регистрация
Восстановить Пароль

Наша группа в ВК

Правообладателям
Для удаления авторских файлов, пишите по адреcу: abuse@hit-muzik.ru

Связанные раздачи
Загрузка / Обновление

:: Детали раздачи
Раздача является мультитрекерной — учтите, количество раздающих не будет совпадать с количеством участников на сайте (скачивание на клиентской стороне зависит от настроек µTorrent клиент программы, настройки -> Включить DHT, Обмен пирами и Поиск лок-х пиров).
Если висит надпись, пиры по нулям - не бойтесь, возможность скачать повторно раздачу - есть. Попробуйте, в случае отказа - прокоментируйте или нажмите на "Позвать скачавших".

Blank & Jones - Substance (10th Anniversary Edition) [2012 / FLAC / 1411 (VBR)] [House]

Скачать Скачать .torrent файл (основная ссылка для скачивания файла)
Magnet-ссылка (альтернативная ссылка для скачивания файла)
Теги house, 2012
Описание
Артист: Blank & Jones
Название: Substance (10th Anniversary Edition)
Жанр: House
Год выхода: 2012
О музыке:
Жанр: Progressive House, Progressive Trance
Format: CD, Album, Reissue, Remastered
Country: Germany
Лейбл: Soundcolours
Cat.#: SC0028
Оригинальный риппер и релизер: DrStandBy*
Аудио кодек: FLAC
Битрейт: lossless
Типа рипа: tracks+.cue
Наличие сканов в раздаче: Да (600dpi, *.png)
Продолжительность: CD1: 81:28 CD2: 89:18

Треклист:
1-01. Blank & Jones - Substance (2:51)
1-02. Blank & Jones - Desire (6:56)
1-03. Blank & Jones - Watching The Waves (8:39)
1-04. Blank & Jones - Coming To Life (6:50)
1-05. Blank & Jones - Elve's Cry (6:20)
1-06. Blank & Jones - Suburban Hell (6:20)
1-07. Blank & Jones - Closer To The Edge (7:23)
1-08. Blank & Jones - The Art Of Love (7:07)
1-09. Blank & Jones - D-Battery (6:27)
1-10. Blank & Jones - It's Alright (6:08)
1-11. Blank & Jones - Golden Moon (8:58)
1-12. Blank & Jones - Desire (Rave Mix) (7:29)

2-01. Blank & Jones - Suburban Hell (Hardfloor Remix) (6:42)
2-02. Blank & Jones feat. Claudia Brucken - Unknown Treasure (Mr. Sam Remix) (7:21)
2-03. Blank & Jones - Dream (Previously Unreleased) (6:14)
2-04. Blank & Jones - Desire (4 Strings Remix) (6:41)
2-05. Blank & Jones - Watching The Waves (Donald & Giles Remix) (10:03)
2-06. Blank & Jones - The Deep End (Brutus & Nero Remix) (5:00)
2-07. Blank & Jones - A Night To Remember (Brutus & Nero Extended Remix) (7:16)
2-08. Blank & Jones - Flaming June (Blank & Jones Extended Summer Reconstruction) (7:01)
2-09. Brutus & Nero - Go! (Original Mix) (6:35)
2-10. Blank & Jones - Desire (Bart Claessen AKA Bartezz Movin' Remix) (8:42)
2-11. Blank & Jones - Watching The Waves (Svenson & Gielen Remix) (7:45)
2-12. Blank & Jones - Desire (Silverblue Remix) (5:47)
2-13. Blank & Jones - Watching The Waves (Die Arzte Remix) (4:11)
Лог EAC
Exact Audio Copy V1.0 beta 3 from 29. August 2011

EAC extraction logfile from 16. February 2012, 22:06

Blank & Jones / Substance (10th Anniversary Edition)

Used drive: TSSTcorpCDDVDW SH-S223CAdapter: 1ID: 4

Read mode: Secure
Utilize accurate stream : Yes
Defeat audio cache: Yes
Make use of C2 pointers : No

Read offset correction: 697
Overread into Lead-In and Lead-Out: No
Fill up missing offset samples with silence : Yes
Delete leading and trailing silent blocks: No
Null samples used in CRC calculations: Yes
Used interface: Native Win32 interface for Win NT & 2000
Gap handling: Appended to previous track

Used output format: User Defined Encoder
Selected bitrate: 896 kBit/s
Quality: High
Add ID3 tag: No
Command line compressor: C:\Program Files\Exact Audio Copy\Flac\flac.exe
Additional command line options : -8 -V -T "ARTIST=%artist%" -T "TITLE=%title%" -T "ALBUM=%albumtitle%" -T "DATE=%year%" -T "TRACKNUMBER=%tracknr%" -T "GENRE=%genre%" -T "COMMENT=ripped by DrStandBy" %source%

TOC of the extracted CD

Track |Start|Length| Start sector | End sector
---------------------------------------------------------
1|0:00.00 |2:50.70 |0|12819
2|2:50.70 |6:55.60 |12820|44004
3|9:46.55 |8:38.68 |44005|82922
4| 18:25.48 |6:49.58 |82923|113655
5| 25:15.31 |6:20.27 |113656|142182
6| 31:35.58 |6:19.51 |142183|170658
7| 37:55.34 |7:23.28 |170659|203911
8| 45:18.62 |7:07.10 |203912|235946
9| 52:25.72 |6:27.13 |235947|264984
10| 58:53.10 |6:08.22 |264985|292606
11| 65:01.32 |8:58.11 |292607|332967
12| 73:59.43 |7:28.54 |332968|366621

Track1

Filename E:\Blank & Jones\Album\2012 - Blank & Jones - Substance (10th Anniversary Edition) (SC0028)\1-01. Blank & Jones - Substance.wav

Pre-gap length0:00:02.00

Peak level 100.0 %
Extraction speed 1.9 X
Track quality 100.0 %
Test CRC 469C51DC
Copy CRC 469C51DC
Track not present in AccurateRip database
Copy OK

Track2

Filename E:\Blank & Jones\Album\2012 - Blank & Jones - Substance (10th Anniversary Edition) (SC0028)\1-02. Blank & Jones - Desire.wav

Pre-gap length0:00:02.00

Peak level 100.0 %
Extraction speed 2.2 X
Track quality 100.0 %
Test CRC 57AB9BFA
Copy CRC 57AB9BFA
Track not present in AccurateRip database
Copy OK

Track3

Filename E:\Blank & Jones\Album\2012 - Blank & Jones - Substance (10th Anniversary Edition) (SC0028)\1-03. Blank & Jones - Watching The Waves.wav

Pre-gap length0:00:01.73

Peak level 100.0 %
Extraction speed 2.1 X
Track quality 99.9 %
Test CRC E5ADFCD2
Copy CRC E5ADFCD2
Track not present in AccurateRip database
Copy OK

Track4

Filename E:\Blank & Jones\Album\2012 - Blank & Jones - Substance (10th Anniversary Edition) (SC0028)\1-04. Blank & Jones - Coming To Life.wav

Pre-gap length0:00:01.74

Peak level 100.0 %
Extraction speed 2.2 X
Track quality 100.0 %
Test CRC 7E7F2449
Copy CRC 7E7F2449
Track not present in AccurateRip database
Copy OK

Track5

Filename E:\Blank & Jones\Album\2012 - Blank & Jones - Substance (10th Anniversary Edition) (SC0028)\1-05. Blank & Jones - Elve's Cry.wav

Pre-gap length0:00:01.74

Peak level 100.0 %
Extraction speed 2.2 X
Track quality 100.0 %
Test CRC F5E6244E
Copy CRC F5E6244E
Track not present in AccurateRip database
Copy OK

Track6

Filename E:\Blank & Jones\Album\2012 - Blank & Jones - Substance (10th Anniversary Edition) (SC0028)\1-06. Blank & Jones - Suburban Hell.wav

Pre-gap length0:00:01.74

Peak level 100.0 %
Extraction speed 2.2 X
Track quality 100.0 %
Test CRC 6ABFB357
Copy CRC 6ABFB357
Track not present in AccurateRip database
Copy OK

Track7

Filename E:\Blank & Jones\Album\2012 - Blank & Jones - Substance (10th Anniversary Edition) (SC0028)\1-07. Blank & Jones - Closer To The Edge.wav

Pre-gap length0:00:01.74

Peak level 100.0 %
Extraction speed 2.2 X
Track quality 100.0 %
Test CRC 6290BB56
Copy CRC 6290BB56
Track not present in AccurateRip database
Copy OK

Track8

Filename E:\Blank & Jones\Album\2012 - Blank & Jones - Substance (10th Anniversary Edition) (SC0028)\1-08. Blank & Jones - The Art Of Love.wav

Pre-gap length0:00:01.74

Peak level 100.0 %
Extraction speed 2.2 X
Track quality 100.0 %
Test CRC 83B2F480
Copy CRC 83B2F480
Track not present in AccurateRip database
Copy OK

Track9

Filename E:\Blank & Jones\Album\2012 - Blank & Jones - Substance (10th Anniversary Edition) (SC0028)\1-09. Blank & Jones - D-Battery.wav

Pre-gap length0:00:01.74

Peak level 100.0 %
Extraction speed 2.2 X
Track quality 100.0 %
Test CRC 30C24287
Copy CRC 30C24287
Track not present in AccurateRip database
Copy OK

Track 10

Filename E:\Blank & Jones\Album\2012 - Blank & Jones - Substance (10th Anniversary Edition) (SC0028)\1-10. Blank & Jones - It's Alright.wav

Pre-gap length0:00:01.73

Peak level 100.0 %
Extraction speed 2.2 X
Track quality 100.0 %
Test CRC 3DDB8872
Copy CRC 3DDB8872
Track not present in AccurateRip database
Copy OK

Track 11

Filename E:\Blank & Jones\Album\2012 - Blank & Jones - Substance (10th Anniversary Edition) (SC0028)\1-11. Blank & Jones - Golden Moon.wav

Pre-gap length0:00:01.74

Peak level 100.0 %
Extraction speed 2.1 X
Track quality 99.9 %
Test CRC 5F6CF7A1
Copy CRC 5F6CF7A1
Track not present in AccurateRip database
Copy OK

Track 12

Filename E:\Blank & Jones\Album\2012 - Blank & Jones - Substance (10th Anniversary Edition) (SC0028)\1-12. Blank & Jones - Desire (Rave Mix).wav

Pre-gap length0:00:01.74

Peak level 100.0 %
Extraction speed 2.2 X
Track quality 100.0 %
Test CRC 6CE9AFC7
Copy CRC 6CE9AFC7
Track not present in AccurateRip database
Copy OK

None of the tracks are present in the AccurateRip database

No errors occurred

End of status report

---- CUETools DB Plugin V2.1.3

[CTDB TOCID: 4GMQ3jIYSAYJ8lAVbHKCVtaL1d8-] found, Submit result: 4GMQ3jIYSAYJ8lAVbHKCVtaL1d8- has been confirmed
[af860e64] (1/1) Accurately ripped

==== Log checksum CA6747120A33596B5DCE11726FE32EE5F79FC3253C594A0D9180E67156164FE1 ====

CD2

CUE
REM GENRE "Progressive House, Progressive Trance"
REM DATE 2012
REM DISCID A913180C
REM COMMENT "ExactAudioCopy v1.0b3"
CATALOG 0814281010173
PERFORMER "Blank & Jones"
TITLE "Substance (10th Anniversary Edition) "
FILE "1-01. Blank & Jones - Substance.wav" WAVE
TRACK 01 AUDIO
TITLE "Substance"
PERFORMER "Blank & Jones"
ISRC DEGE91100158
INDEX 01 00:00:00
TRACK 02 AUDIO
TITLE "Desire"
PERFORMER "Blank & Jones"
ISRC DEGE91100159
INDEX 00 02:48:70
FILE "1-02. Blank & Jones - Desire.wav" WAVE
INDEX 01 00:00:00
TRACK 03 AUDIO
TITLE "Watching The Waves"
PERFORMER "Blank & Jones"
ISRC DEGE91100160
INDEX 00 06:53:62
FILE "1-03. Blank & Jones - Watching The Waves.wav" WAVE
INDEX 01 00:00:00
TRACK 04 AUDIO
TITLE "Coming To Life"
PERFORMER "Blank & Jones"
ISRC DEGE91100161
INDEX 00 08:36:69
FILE "1-04. Blank & Jones - Coming To Life.wav" WAVE
INDEX 01 00:00:00
TRACK 05 AUDIO
TITLE "Elve's Cry"
PERFORMER "Blank & Jones"
ISRC DEGE91100162
INDEX 00 06:47:59
FILE "1-05. Blank & Jones - Elve's Cry.wav" WAVE
INDEX 01 00:00:00
TRACK 06 AUDIO
TITLE "Suburban Hell"
PERFORMER "Blank & Jones"
ISRC DEGE91100163
INDEX 00 06:18:28
FILE "1-06. Blank & Jones - Suburban Hell.wav" WAVE
INDEX 01 00:00:00
TRACK 07 AUDIO
TITLE "Closer To The Edge"
PERFORMER "Blank & Jones"
ISRC DEGE91100164
INDEX 00 06:17:52
FILE "1-07. Blank & Jones - Closer To The Edge.wav" WAVE
INDEX 01 00:00:00
TRACK 08 AUDIO
TITLE "The Art Of Love"
PERFORMER "Blank & Jones"
ISRC DEGE91100165
INDEX 00 07:21:29
FILE "1-08. Blank & Jones - The Art Of Love.wav" WAVE
INDEX 01 00:00:00
TRACK 09 AUDIO
TITLE "D-Battery"
PERFORMER "Blank & Jones"
ISRC DEGE91100166
INDEX 00 07:05:11
FILE "1-09. Blank & Jones - D-Battery.wav" WAVE
INDEX 01 00:00:00
TRACK 10 AUDIO
TITLE "It's Alright"
PERFORMER "Blank & Jones"
ISRC DEGE91100167
INDEX 00 06:25:15
FILE "1-10. Blank & Jones - It's Alright.wav" WAVE
INDEX 01 00:00:00
TRACK 11 AUDIO
TITLE "Golden Moon"
PERFORMER "Blank & Jones"
ISRC DEGE91100168
INDEX 00 06:06:23
FILE "1-11. Blank & Jones - Golden Moon.wav" WAVE
INDEX 01 00:00:00
TRACK 12 AUDIO
TITLE "Desire (Rave Mix)"
PERFORMER "Blank & Jones"
ISRC DEGE91100169
INDEX 00 08:56:12
FILE "1-12. Blank & Jones - Desire (Rave Mix).wav" WAVE
INDEX 01 00:00:00

CD2

Об альбоме:
http://zamolxismd.org/m/iceimg.com/i/d2/7c/6a3bde37f9.png

Blank & Jones: The new year starts with a classic release from Blank & Jones: The legendary "Substance"
album finally gets it's well deserved "Deluxe Remastered Edition" 2CD box or extended Digital Download with the Original Album Unmixed, Original Remixes by Hardfloor, 4 Strings, Barthezz and DIE ARZTE! Blank & Jones is a Cologne, Germany based Trance duo, consisting of the members Jan Pieter Blank (born June 15, 1971), known as Piet Blank; Rene Runge (born June 27, 1968), better known as DJ Jaspa Jones; and the producer Andy Kaufhold (N*D*K) (born December 17, 1969). They have released eleven albums and more than 16 singles since their first single release "Sunrise" in 1997.

Официальный сайт: http://www.blankandjones.com/

Официальный MySpace: http://www.myspace.com/blankandjonesinfo

Официальный Twitter: https://twitter.com/#!/blankandjones

Формат: FLAC
Битрэйт: 1411
vbr: Да
Категория Музыка / Мультимедиа RSS лента
Добавлен (1 год, 1 неделю назад)
Просмотров 0 раз (a)
Взят 0 раз (a)
Файлы 38, 1.34 GB (1 440 267 291 байт)
Раздал ViKa  (Искать торренты)
Участники
Скачивают (качают): 0 (1), Завершено: 0 (0)
Просматривают

« VA - Loco Ibiza Vol.3 [2012 / MP3 / 128] [House] -†- ¿? -†- Blank & Jones - Substance (10th Anniversary Edition) [2012 / MP3 / 320] [House] »

:: Список Комментариев
Нет комментариев.

 Нет комментариев
Самые активные релизы за неделю
Музыка / Мультимедиа
Na Chui (Lindemann) - Клипы [4 шт.] [Uncensored] (2019-2020) WEBRip 1080p
  • Na Chui (Lindemann) - Клипы [4 шт.] [Uncensored] (2019-2020) WEBRip 1080p
  • Пошлая Молли - Paycheck [EP] (2020) MP3
  • VA - Just the Hits 90's [2CD] (2017) FLAC
  • Best Of Disco Balls Records 2019 (Part 3, WEB) ( House / 2020 )
  • King Krule - Man Alive! ( Rock / 2020 )
  • Aeroritmix - Dynamic Trance Universe 210 [Big Love Special] (2020) MP3
  • VA - Just the Hits 80's [4CD] (2018) FLAC
  • Чарт Яндекс. Музыки (14.02.2020) ( Поп / 2020 )
  • Сборник самой известной классической музыки ( Классика / 2000 )
  • Ногу Свело! - Хочу Бодаться! (2020) FLAC
  • B машину ремиксы (Vol. 6) ( Pop / 2020 )
  • Телевизор - Переиздание бэк-каталога от Геометрии [12 альбомов, 16 CD] (2011-2016) FLAC

Счетчики
Рейтинг@Mail.ru Яндекс.Метрика Счетчик PR-CY.Rank Анализ сайта hit-muzik.ru

здесь должен быть ваш плеер
Поделится ссылкой