Привет, Гость

Войти на сайт
Регистрация
Восстановить Пароль

Наша группа в ВК

Правообладателям
Для удаления авторских файлов, пишите по адреcу: abuse@hit-muzik.ru

Связанные раздачи
Загрузка / Обновление

:: Детали раздачи
Раздача является мультитрекерной — учтите, количество раздающих не будет совпадать с количеством участников на сайте (скачивание на клиентской стороне зависит от настроек µTorrent клиент программы, настройки -> Включить DHT, Обмен пирами и Поиск лок-х пиров).
Если висит надпись, пиры по нулям - не бойтесь, возможность скачать повторно раздачу - есть. Попробуйте, в случае отказа - прокоментируйте или нажмите на "Позвать скачавших".

Deadmau5 - The Remixes (Unmixed For DJs) [2011 / FLAC / 1411 (VBR)] [House]

Скачать Скачать .torrent файл (основная ссылка для скачивания файла)
Magnet-ссылка (альтернативная ссылка для скачивания файла)
Теги house, 2011
Описание
Артист: Deadmau5
Название: The Remixes (Unmixed For DJs)
Жанр: House
Год выхода: 2011
О музыке:
Жанр: Progressive House
Лейбл: Cubrik
Cat.#: CUBCD01UM
Аудио кодек: FLAC
Битрейт: lossless
Типа рипа: tracks+.cue
Продолжительность: cd1: 68:40 cd2: 71:16

Треклист:
CD1
1 Burufunk Vs Carbon Community - Community Funk (Deadmau5 Remix)
2 NuBreed - NuFunk (Deadmau5 Remix)
3 James Talk - Remote (Deadmau5 Remix)
4 Bodyrox feat Luciana - What Planet You're On (Deadmau5 Remix)
5 Prime 33 - Burn (Deadmau5 Remix)
6 Kamisshake - Dark Beat (Deadmau5 Remix)
7 Mike de Scala - Space And Time (Deadmau5 Remix)
8 Calvin Harris - I'm Not Alone (Deadmau5 Remix)
9 Jorgensen Vs BSD - I Don't Care (Deadmau5 Remix)
10. Energy 52 - Cafe Del Mar (Deadmau5 Remix)

CD2
1 Morgan Page - The Longest Road (Deadmau5 Remix)
2 Mark Demark - Tiny Dancer (Deadmau5 Remix)
3 Hybrid - Finished Symphony (Deadmau5 Remix)
4 Rachael Starr - To Forever (Deadmau5 Remix)
5 Purple Code - The Rising (Deadmau5 Remix)
6 Mellee Fresh & Dirty 30 - Beautiful Rich & Horny (Deadmau5 Remix)
7 Noir - Super Skunk (Deadmau5 Remix)
8 Carl Cox - I Want You (Deadmau5 Remix)
9 Francesco Diaz & Young Rebels - It's Our Future (Deadmau5 Remix)
10 Kamisshake - Dark Beat (Deadmau5 dub Remix)
Лог EAC
X Lossless Decoder version 20111214 (138.1)

XLD extraction logfile from 2012-01-09 18:53:07 -0800

Various Artists / Deadmau5 - The Remixes Unmixed For DJs

Used drive : PLEXTOR BDDVDR PX-B310U (revision 1.07)

Ripper mode: XLD Secure Ripper
Disable audio cache: OK for the drive with a cache less than 1375KiB
Make use of C2 pointers : NO
Read offset correction: 6
Max retry count: 100
Gap status: Analyzed, Appended

TOC of the extracted CD
Track |Start|Length| Start sector | End sector
---------------------------------------------------------
1| 00:00:00 | 06:13:33 |0|28007
2| 06:13:33 | 07:39:52 |28008|62484
3| 13:53:10 | 06:11:45 |62485|90354
4| 20:04:55 | 07:16:06 |90355|123060
5| 27:20:61 | 06:09:22 |123061|150757
6| 33:30:08 | 06:12:33 |150758|178690
7| 39:42:41 | 06:59:74 |178691|210189
8| 46:42:40 | 08:17:23 |210190|247487
9| 54:59:63 | 06:10:35 |247488|275272
10| 61:10:23 | 07:30:69 |275273|309091

AccurateRip Summary
Disc not found in AccurateRip DB.

All Tracks
Album gain: -7.48 dB
Peak: 0.988708
Statistics
Read error: 0
Jitter error (maybe fixed): 0
Retry sector count: 0
Damaged sector count: 0

Track 01
Filename : /Compilations - Deadmau5 - The Remixes Unmixed For DJs (2011) [FLAC]/01/01 - Community Funk (Deadmau5 Remix).flac
Pre-gap length : 00:02:00

Track gain: -7.95 dB
Peak: 0.922699
CRC32 hash (test run): 4DC91B45
CRC32 hash: 4DC91B45
CRC32 hash (skip zero) : 1FF52937
AccurateRip signature: DCC74D85
->Track not present in AccurateRip database.
Statistics
Read error: 0
Jitter error (maybe fixed): 0
Retry sector count: 0
Damaged sector count: 0

Track 02
Filename : /Compilations - Deadmau5 - The Remixes Unmixed For DJs (2011) [FLAC]/01/02 - Nufunk (Deadmau5 Remix).flac
Pre-gap length : 00:02:00

Track gain: -5.64 dB
Peak: 0.955017
CRC32 hash (test run): 9BFE5746
CRC32 hash: 9BFE5746
CRC32 hash (skip zero) : C10C46FE
AccurateRip signature: 0DF24FC8
->Track not present in AccurateRip database.
Statistics
Read error: 0
Jitter error (maybe fixed): 0
Retry sector count: 0
Damaged sector count: 0

Track 03
Filename : /Compilations - Deadmau5 - The Remixes Unmixed For DJs (2011) [FLAC]/01/03 - Remote (Deadmau5 Remix).flac
Pre-gap length : 00:02:00

Track gain: -5.85 dB
Peak: 0.954987
CRC32 hash (test run): 73CD35BD
CRC32 hash: 73CD35BD
CRC32 hash (skip zero) : 10DE5E8E
AccurateRip signature: FE633463
->Track not present in AccurateRip database.
Statistics
Read error: 0
Jitter error (maybe fixed): 0
Retry sector count: 0
Damaged sector count: 0

Track 04
Filename : /Compilations - Deadmau5 - The Remixes Unmixed For DJs (2011) [FLAC]/01/04 - What Planet You're On (Deadmau5 Remix).flac
Pre-gap length : 00:02:00

Track gain: -6.28 dB
Peak: 0.988708
CRC32 hash (test run): 86872688
CRC32 hash: 86872688
CRC32 hash (skip zero) : ED706081
AccurateRip signature: 25629693
->Track not present in AccurateRip database.
Statistics
Read error: 0
Jitter error (maybe fixed): 0
Retry sector count: 0
Damaged sector count: 0

Track 05
Filename : /Compilations - Deadmau5 - The Remixes Unmixed For DJs (2011) [FLAC]/01/05 - Burn (Deadmau5 Remix).flac
Pre-gap length : 00:02:00

Track gain: -8.40 dB
Peak: 0.954987
CRC32 hash (test run): C1586793
CRC32 hash: C1586793
CRC32 hash (skip zero) : A7F86831
AccurateRip signature: 4C70D569
->Track not present in AccurateRip database.
Statistics
Read error: 0
Jitter error (maybe fixed): 0
Retry sector count: 0
Damaged sector count: 0

Track 06
Filename : /Compilations - Deadmau5 - The Remixes Unmixed For DJs (2011) [FLAC]/01/06 - Dark Beat (Deadmau5 Remix).flac
Pre-gap length : 00:02:00

Track gain: -7.79 dB
Peak: 0.944031
CRC32 hash (test run): 665D11C9
CRC32 hash: 665D11C9
CRC32 hash (skip zero) : 6FBBB8FF
AccurateRip signature: C78D5C1D
->Track not present in AccurateRip database.
Statistics
Read error: 0
Jitter error (maybe fixed): 0
Retry sector count: 0
Damaged sector count: 0

Track 07
Filename : /Compilations - Deadmau5 - The Remixes Unmixed For DJs (2011) [FLAC]/01/07 - Space And Time (Deadmau5 Remix).flac
Pre-gap length : 00:02:00

Track gain: -4.55 dB
Peak: 0.954987
CRC32 hash (test run): 71BA56FE
CRC32 hash: 71BA56FE
CRC32 hash (skip zero) : 1F9B2F93
AccurateRip signature: 9EF9BE4E
->Track not present in AccurateRip database.
Statistics
Read error: 0
Jitter error (maybe fixed): 0
Retry sector count: 0
Damaged sector count: 0

Track 08
Filename : /Compilations - Deadmau5 - The Remixes Unmixed For DJs (2011) [FLAC]/01/08 - I'm Not Alone (Deadmau5 Remix).flac
Pre-gap length : 00:02:00

Track gain: -6.68 dB
Peak: 0.954956
CRC32 hash (test run): 97775236
CRC32 hash: 97775236
CRC32 hash (skip zero) : D2312192
AccurateRip signature: 86D52451
->Track not present in AccurateRip database.
Statistics
Read error: 0
Jitter error (maybe fixed): 0
Retry sector count: 0
Damaged sector count: 0

Track 09
Filename : /Compilations - Deadmau5 - The Remixes Unmixed For DJs (2011) [FLAC]/01/09 - I Don't Care (Deadmau5 Remix).flac
Pre-gap length : 00:02:00

Track gain: -6.11 dB
Peak: 0.954987
CRC32 hash (test run): B1060EA1
CRC32 hash: B1060EA1
CRC32 hash (skip zero) : A28E2E25
AccurateRip signature: F8AE2B78
->Track not present in AccurateRip database.
Statistics
Read error: 0
Jitter error (maybe fixed): 0
Retry sector count: 0
Damaged sector count: 0

Track 10
Filename : /Compilations - Deadmau5 - The Remixes Unmixed For DJs (2011) [FLAC]/01/10 - Cafe Del Mar (Deadmau5 Remix).flac
Pre-gap length : 00:02:00

Track gain: -10.17 dB
Peak: 0.954987
CRC32 hash (test run): 89ED8D5F
CRC32 hash: 89ED8D5F
CRC32 hash (skip zero) : 1BB176D6
AccurateRip signature: A3BF1769
->Track not present in AccurateRip database.
Statistics
Read error: 0
Jitter error (maybe fixed): 0
Retry sector count: 0
Damaged sector count: 0

No errors occurred

End of status report

CD2

CUE
TITLE "Deadmau5 - The Remixes Unmixed For DJs"
REM GENRE "Electronic"
REM DATE "2011"
REM DISCID 7410190A
REM REPLAYGAIN_ALBUM_GAIN -7.48 dB
REM REPLAYGAIN_ALBUM_PEAK 0.988708
FILE "01 - Community Funk (Deadmau5 Remix).flac" WAVE
TRACK 01 AUDIO
TITLE "Community Funk (Deadmau5 Remix)"
PERFORMER "Burufunk vs Carbon Community"
FLAGS DCP
REM REPLAYGAIN_TRACK_GAIN -7.95 dB
REM REPLAYGAIN_TRACK_PEAK 0.922699
INDEX 01 00:00:00
TRACK 02 AUDIO
TITLE "Nufunk (Deadmau5 Remix)"
PERFORMER "Nubreed"
FLAGS DCP
REM REPLAYGAIN_TRACK_GAIN -5.64 dB
REM REPLAYGAIN_TRACK_PEAK 0.955017
INDEX 00 06:11:33
FILE "02 - Nufunk (Deadmau5 Remix).flac" WAVE
INDEX 01 00:00:00
TRACK 03 AUDIO
TITLE "Remote (Deadmau5 Remix)"
PERFORMER "James Talk"
FLAGS DCP
REM REPLAYGAIN_TRACK_GAIN -5.85 dB
REM REPLAYGAIN_TRACK_PEAK 0.954987
INDEX 00 07:37:52
FILE "03 - Remote (Deadmau5 Remix).flac" WAVE
INDEX 01 00:00:00
TRACK 04 AUDIO
TITLE "What Planet You're On (Deadmau5 Remix)"
PERFORMER "Bodyrox feat Luciana"
FLAGS DCP
REM REPLAYGAIN_TRACK_GAIN -6.28 dB
REM REPLAYGAIN_TRACK_PEAK 0.988708
INDEX 00 06:09:45
FILE "04 - What Planet You're On (Deadmau5 Remix).flac" WAVE
INDEX 01 00:00:00
TRACK 05 AUDIO
TITLE "Burn (Deadmau5 Remix)"
PERFORMER "Prime 33"
FLAGS DCP
REM REPLAYGAIN_TRACK_GAIN -8.40 dB
REM REPLAYGAIN_TRACK_PEAK 0.954987
INDEX 00 07:14:06
FILE "05 - Burn (Deadmau5 Remix).flac" WAVE
INDEX 01 00:00:00
TRACK 06 AUDIO
TITLE "Dark Beat (Deadmau5 Remix)"
PERFORMER "Kamisshake"
FLAGS DCP
REM REPLAYGAIN_TRACK_GAIN -7.79 dB
REM REPLAYGAIN_TRACK_PEAK 0.944031
INDEX 00 06:07:22
FILE "06 - Dark Beat (Deadmau5 Remix).flac" WAVE
INDEX 01 00:00:00
TRACK 07 AUDIO
TITLE "Space And Time (Deadmau5 Remix)"
PERFORMER "Mike De Scala"
FLAGS DCP
REM REPLAYGAIN_TRACK_GAIN -4.55 dB
REM REPLAYGAIN_TRACK_PEAK 0.954987
INDEX 00 06:10:33
FILE "07 - Space And Time (Deadmau5 Remix).flac" WAVE
INDEX 01 00:00:00
TRACK 08 AUDIO
TITLE "I'm Not Alone (Deadmau5 Remix)"
PERFORMER "Calvin Harris"
FLAGS DCP
REM REPLAYGAIN_TRACK_GAIN -6.68 dB
REM REPLAYGAIN_TRACK_PEAK 0.954956
INDEX 00 06:57:74
FILE "08 - I'm Not Alone (Deadmau5 Remix).flac" WAVE
INDEX 01 00:00:00
TRACK 09 AUDIO
TITLE "I Don't Care (Deadmau5 Remix)"
PERFORMER "Jorgensen vs BSD"
FLAGS DCP
REM REPLAYGAIN_TRACK_GAIN -6.11 dB
REM REPLAYGAIN_TRACK_PEAK 0.954987
INDEX 00 08:15:23
FILE "09 - I Don't Care (Deadmau5 Remix).flac" WAVE
INDEX 01 00:00:00
TRACK 10 AUDIO
TITLE "Cafe Del Mar (Deadmau5 Remix)"
PERFORMER "Energy 52"
FLAGS DCP
REM REPLAYGAIN_TRACK_GAIN -10.17 dB
REM REPLAYGAIN_TRACK_PEAK 0.954987
INDEX 00 06:08:35
FILE "10 - Cafe Del Mar (Deadmau5 Remix).flac" WAVE
INDEX 01 00:00:00

CD2

Об артисте:
Joel Thomas Zimmerman (born January 5, 1981), better known by his stage name deadmau5, is a Canadian progressive, electro, and house producer based in Toronto. His tracks have been included in compilation albums such as In Search of Sunrise 6: Ibiza, MixMag's Tech-Trance-Electro-Madness (mixed by deadmau5 himself), and on Armin van Buuren's A State of Trance radio show. His debut album, Get Scraped, was released in 2006, followed by others in the next few years.As well as his own solo releases, deadmau5 has worked alongside other DJs and producers, such as Kaskade, MC Flipside, Rob Swire of Pendulum, Skrillex, and Steve Duda under the BSOD alias.

Официальный Сайт: http://www.deadmau5.com/

Официальный Twitter: http://www.myspace.com/deadmau5

Официальный YouTube: http://twitter.com/#
!/deadmau5

Формат: FLAC
Битрэйт: 1411
vbr: Да
Категория Музыка / Мультимедиа RSS лента
Добавлен (1 год, 1 неделю назад)
Просмотров 0 раз (a)
Взят 1 раз (a)
Файлы 28, 885.68 MB (928 705 892 байт)
Раздал ViKa  (Искать торренты)
Участники
Скачивают (качают): 0 (1), Завершено: 0 (0)
Просматривают

« Jenya Solid - Orange Music White Night #3 09.03.12 [2012 / MP3 / 320] [Trance] -†- ¿? -†- Deadmau5 - The Remixes (Unmixed For DJs) [2011 / MP3 / 320] [House] »

:: Список Комментариев
Нет комментариев.

 Нет комментариев
Самые активные релизы за неделю
Музыка / Мультимедиа
Na Chui (Lindemann) - Клипы [4 шт.] [Uncensored] (2019-2020) WEBRip 1080p
  • Na Chui (Lindemann) - Клипы [4 шт.] [Uncensored] (2019-2020) WEBRip 1080p
  • Михаил Волков и проект ''Инкуб' - Дискография (2006-2019) MP3 от Vayper
  • Пошлая Молли - Paycheck [EP] (2020) MP3
  • Несчастный случай - В городе Лжедмитрове - 2020, MP3, 320 kbps
  • VA - Just the Hits 80's [4CD] (2018) FLAC
  • VA - Best Of Disco Balls Records 2019 Part 3 (2020) MP3
  • Несчастный случай - В городе Лжедмитрове (2020) MP3
  • Swamplord - Swamplord - 2020, MP3, 320 kbps
  • King Krule - Man Alive! (2020) MP3
  • VA - Чарт Яндекс.Музыки [14.02] (2020) MP3
  • Five Finger Death Punch - F8 (2020) MP3
  • Cliff Richard - Golden Songs (2020) MP3

Счетчики
Рейтинг@Mail.ru Яндекс.Метрика Счетчик PR-CY.Rank Анализ сайта hit-muzik.ru

здесь должен быть ваш плеер
Поделится ссылкой