Привет, Гость
[1499] из [1500]

Войти на сайт
Регистрация
Восстановить Пароль

Наша группа в ВК

Копилка сайта и ваш заработок крипты

Правообладателям

Для удаления авторских файлов, пишите по адреcу: [email protected].
Чтобы ваше письмо не было проигнорировано и было обработано автоматической системой удаления авторских раздач, необходимо соблюдать правила оформления текста:
* Присылайте абсолютные адреса ссылок на торрент-раздачи (с табуляцией, с отступами)
* Ни pdf, ни doc файлы не читаются скриптом, за исключением rtf формата

Просьба это учесть при оформлении письма (ем).


Связанные раздачи
Загрузка / Обновление

:: Детали раздачи
Раздача является мультитрекерной — учтите, количество раздающих не будет совпадать с количеством участников на сайте (скачивание на клиентской стороне зависит от настроек µTorrent клиент программы, настройки -> Включить DHT, Обмен пирами и Поиск лок-х пиров).
Если висит надпись, пиры по нулям - не бойтесь, возможность скачать повторно раздачу - есть. Попробуйте, в случае отказа - прокоментируйте или нажмите на "Позвать скачавших".

Sonata Arctica - Live In Finland - 2011, FLAC (image + .cue), lossless

Скачать Исчерпан лимит скачиваний, возможность скачать раздачу появится завтра. Если вы гость - Авторизуйтесь, чтобы получить дополнительные слоты.
Лимит скачиваний в день: 10
Теги power metal, 2011
Описание
Sonata Arctica - Live In Finland - 2011, FLAC (image + .cue), lossless
Sonata Arctica - Live In Finland

http://lostpic.net/images/1f5631ab63beecf392c6b48ff30ed6ad.jpg

Страна: Finland http://www.skype-emoticons.com/images/fi.png
Жанр: Power Metal
Год выпуска: 2011
Формат: FLAC (image + .cue)
Битрейт аудио: lossless
Издатель: Nuclear Blast
Номер по каталогу: NB 2486-0
Продолжительность: 01:53:56

http://lostpic.net/images/4f28323e7780153fc20aabc8c9b34290.png
CD 1: Live In Finland
01. Intro (2:19)
02. Flag In The Ground (4:28)
03. The Last Amazing Grays (5:44)
04. Juliet (5:52)
05. Replica (4:43)
06. Blank File (4:09)
07. As If The World Wasn't Ending (3:53)
08. Paid In Full (4:21)
09. Instrumental Exhibition (3:37)
10. The Misery (5:16)
11. In Black & White (5:15)
12. Letter To Dana (5:13)
13. Caleb (6:24)
14. Don't Say A Word/Outro (10:06)

Продолжительность: 01:11:19


01. Paid In Full (4:25)
02. 8th Commandment (3:59)
03. Replica (4:46)
04. Tallulah (5:37)
05. Caleb (6:15)
06. White Pearl, Black Oceans (8:07)
07. Draw Me (3:58)
08. Fullmoon (5:30)

Продолжительность: 00:42:36




Код: Exact Audio Copy V0.99 prebeta 5 from 4. May 2009

EAC extraction logfile from 9. November 2011, 21:25

Sonata Arctica / Live In Finland

Used drive  : ATAPI   iHAS624   B   Adapter: 2  ID: 0

Read mode               : Secure
Utilize accurate stream : Yes
Defeat audio cache      : Yes
Make use of C2 pointers : No

Read offset correction                      : 6
Overread into Lead-In and Lead-Out          : No
Fill up missing offset samples with silence : Yes
Delete leading and trailing silent blocks   : No
Null samples used in CRC calculations       : Yes
Used interface                              : Installed external ASPI interface

Used output format              : User Defined Encoder
Selected bitrate                : 40 kBit/s
Quality                         : High
Add ID3 tag                     : No
Command line compressor         : C:\Program Files\Exact Audio Copy\Flac\flac.exe
Additional command line options : -6 -V %s

TOC of the extracted CD

     Track |   Start  |  Length  | Start sector | End sector
    --------------------------------------------------------         1  |  0:00.00 |  2:18.55 |         0    |    10404
        2  |  2:18.55 |  4:27.46 |     10405    |    30475
        3  |  6:46.26 |  5:44.21 |     30476    |    56296
        4  | 12:30.47 |  5:51.73 |     56297    |    82694
        5  | 18:22.45 |  4:42.64 |     82695    |   103908
        6  | 23:05.34 |  4:09.04 |    103909    |   122587
        7  | 27:14.38 |  3:53.34 |    122588    |   140096
        8  | 31:07.72 |  4:21.34 |    140097    |   159705
        9  | 35:29.31 |  3:36.46 |    159706    |   175951
       10  | 39:06.02 |  5:16.27 |    175952    |   199678
       11  | 44:22.29 |  5:14.54 |    199679    |   223282
       12  | 49:37.08 |  5:12.61 |    223283    |   246743
       13  | 54:49.69 |  6:23.65 |    246744    |   275533
       14  | 61:13.59 | 10:05.73 |    275534    |   320981

Range status and errors

Selected range

     Filename D:\Download\Sonata Arctica - Live In Finland.wav

     Peak level 100.0 %
     Range quality 100.0 %
     Copy CRC ACBA2347
     Copy OK

No errors occurred

AccurateRip summary

Track  1  not present in database
Track  2  not present in database
Track  3  not present in database
Track  4  not present in database
Track  5  not present in database
Track  6  not present in database
Track  7  not present in database
Track  8  not present in database
Track  9  not present in database
Track 10  not present in database
Track 11  not present in database
Track 12  not present in database
Track 13  not present in database
Track 14  not present in database

None of the tracks are present in the AccurateRip database
Код: Exact Audio Copy V0.99 prebeta 5 from 4. May 2009

EAC extraction logfile from 9. November 2011, 21:36

Sonata Arctica / Sonata Arctica Open Air II

Used drive  : ATAPI   iHAS624   B   Adapter: 2  ID: 0

Read mode               : Secure
Utilize accurate stream : Yes
Defeat audio cache      : Yes
Make use of C2 pointers : No

Read offset correction                      : 6
Overread into Lead-In and Lead-Out          : No
Fill up missing offset samples with silence : Yes
Delete leading and trailing silent blocks   : No
Null samples used in CRC calculations       : Yes
Used interface                              : Installed external ASPI interface

Used output format              : User Defined Encoder
Selected bitrate                : 40 kBit/s
Quality                         : High
Add ID3 tag                     : No
Command line compressor         : C:\Program Files\Exact Audio Copy\Flac\flac.exe
Additional command line options : -6 -V %s

TOC of the extracted CD

     Track |   Start  |  Length  | Start sector | End sector
    --------------------------------------------------------         1  |  0:00.00 |  4:24.57 |         0    |    19856
        2  |  4:24.57 |  3:59.32 |     19857    |    37813
        3  |  8:24.14 |  4:45.60 |     37814    |    59248
        4  | 13:09.74 |  5:37.36 |     59249    |    84559
        5  | 18:47.35 |  6:14.66 |     84560    |   112675
        6  | 25:02.26 |  8:06.41 |    112676    |   149166
        7  | 33:08.67 |  3:57.46 |    149167    |   166987
        8  | 37:06.38 |  5:30.20 |    166988    |   191757

Range status and errors

Selected range

     Filename D:\Download\Sonata Arctica - Sonata Arctica Open Air II.wav

     Peak level 100.0 %
     Range quality 100.0 %
     Copy CRC 6017D4FF
     Copy OK

No errors occurred

AccurateRip summary

Track  1  not present in database
Track  2  not present in database
Track  3  not present in database
Track  4  not present in database
Track  5  not present in database
Track  6  not present in database
Track  7  not present in database
Track  8  not present in database

None of the tracks are present in the AccurateRip database

End of status report



Код: ----------------------
DON'T MODIFY THIS FILE

----------------------
PERFORMER: auCDtect Task Manager, ver. 1.5.1RC4 build 1.5.1.5
Copyright (c) 2008-2010 y-soft. All rights reserved
http://y-soft.org

ANALYZER: auCDtect: CD records authenticity detector, version 0.8.2
Copyright (c) 2004 Oleg Berngardt. All rights reserved.
Copyright (c) 2004 Alexander Djourik. All rights reserved.

FILE: Sonata Arctica - Live In Finland.flac
  Size: 556516910 Hash: 07C450FB52991B11562805BF46FA958B Accuracy: -m0
  Conclusion: CDDA 99%
  Signature: 1F9E28536DD3ECEAB6D87C34CC2195B6F39FF494
Код: ----------------------
DON'T MODIFY THIS FILE

----------------------
PERFORMER: auCDtect Task Manager, ver. 1.5.1RC4 build 1.5.1.5
Copyright (c) 2008-2010 y-soft. All rights reserved
http://y-soft.org

ANALYZER: auCDtect: CD records authenticity detector, version 0.8.2
Copyright (c) 2004 Oleg Berngardt. All rights reserved.
Copyright (c) 2004 Alexander Djourik. All rights reserved.

FILE: Sonata Arctica - Sonata Arctica Open Air II.flac
  Size: 325933404 Hash: E2607BC41E68F8AB48F119436CA3B13A Accuracy: -m0
  Conclusion: CDDA 100%
  Signature: 6AE82A9C94CED8CEED8E9C6985D3DE9A3ADF53EC




Sonata Arctica — финская англоязычная пауэр-метал группа, образованная в 1996 году.

Состав:
Tony Kakko - вокал
Elias Viljanen - гитара, вокал
Tommy Portimo - ударные
Marko Paasikoski - бас, вокал
Henrik Klingenberg - клавишные

Офф. сайт группы.


http://lostpic.net/images/b5d029374edcc9b0b9b22831ebbb339e.gif
Скриншоты Sonata Arctica - Live In Finland - 2011, FLAC (image + .cue), lossless
Категория Музыка / Мультимедиа RSS лента
Добавлен (2 года, 9 месяцев назад)
Просмотров 63 раз (a)
Взят 1 раз (a)
Файлы 21, 928.44 MB (973 541 150 байт)
Раздал ViKa  (Искать торренты)
Участники
Скачивают (качают): 0 (1), Завершено: 0 (0)
Просматривают

« Alice Cooper - Welcome 2 My Nightmare - 2011, MP3, 320 kbps -†- ¿? -†- Charred Walls of the Damned - Cold Winds On Timeless Days - 2011, FLAC (image + .cue), lossless »

:: Список Комментариев
Нет комментариев.

 Нет комментариев
Самые активные релизы за неделю
Нет релизов к показу

Счетчики
Яндекс.Метрика Анализ сайта hit-muzik.ru