Привет, Гость
 

Войти на сайт
Регистрация
Восстановить Пароль

Наша группа в ВК
 

Правообладателям
 
Для удаления авторских файлов, пишите по адреcу: abuse@hit-muzik.ru

здесь должен быть ваш плеер
Связанные раздачи
 
Загрузка / Обновление

:: Детали раздачи

Иван Кучин - Человек в телогрейке. Лучшие песни (2001) FLAC

Скачать Скачать .torrent файл (основная ссылка для скачивания файла)
Magnet-ссылка (альтернативная ссылка для скачивания файла)
Теги шансон, 2001
Описание
Иван Кучин - Человек в телогрейке. Лучшие песни (2001) FLAC
Название: Человек в телогрейке. Лучшие песни
Исполнитель: Иван Кучин
Год: 2001
Издание: Classic Company - CC-CD-066/01
Жанр: Шансон

Страна: Россия

Продолжительность: 01:19:21
Формат/Кодек: FLAC
Битрейт аудио: Lossless
Тип рипа: image + .cue

Трек-лист

Exact Audio Copy V0.99 prebeta 5 from 4. May 2009

Отчёт EAC об извлечении, выполненном 17. апреля 2010, 15:30

Иван Кучин / ЧЕЛОВЕК В ТЕЛОГРЕЙКЕ

Дисковод: ASUS DRW-1814BLT Adapter: 5 ID: 0

Режим чтения : Достоверность
Использование точного потока : Да
Отключение кэша аудио : Да
Использование указателей C2 : Нет

Коррекция смещения при чтении : 6
Способность читать области Lead-in и Lead-out : Нет
Заполнение пропущенных сэмплов тишиной : Да
Удаление блоков с тишиной в начале и конце : Нет
При вычислениях CRC использовались нулевые сэмплы : Да
Интерфейс : Установленный внешний ASPI-интерфейс

Выходной формат : Внутренние WAV-операции
Формат сэмплов : 44.100 Гц; 16 бит; стерео

TOC извлечённого CD

Трек | Старт | Длительность | Начальный сектор | Конечный сектор
---------------------------------------------------------------------
1 | 0:00.00 | 5:20.43 | 0 | 24042
2 | 5:20.43 | 4:28.30 | 24043 | 44172
3 | 9:48.73 | 3:42.37 | 44173 | 60859
4 | 13:31.35 | 3:17.20 | 60860 | 75654
5 | 16:48.55 | 3:46.71 | 75655 | 92675
6 | 20:35.51 | 4:14.04 | 92676 | 111729
7 | 24:49.55 | 3:44.57 | 111730 | 128586
8 | 28:34.37 | 4:09.34 | 128587 | 147295
9 | 32:43.71 | 3:32.73 | 147296 | 163268
10 | 36:16.69 | 3:27.33 | 163269 | 178826
11 | 39:44.27 | 4:21.61 | 178827 | 198462
12 | 44:06.13 | 3:34.63 | 198463 | 214575
13 | 47:41.01 | 4:12.55 | 214576 | 233530
14 | 51:53.56 | 3:47.43 | 233531 | 250598
15 | 55:41.24 | 3:30.04 | 250599 | 266352
16 | 59:11.28 | 3:37.21 | 266353 | 282648
17 | 62:48.49 | 5:38.63 | 282649 | 308061
18 | 68:27.37 | 3:31.12 | 308062 | 323898
19 | 71:58.49 | 3:31.27 | 323899 | 339750
20 | 75:30.01 | 3:50.46 | 339751 | 357046

Характеристики диапазона извлечения и сообщения об ошибках

Выбранный диапазон

Имя файла D:Иван Кучин - ЧЕЛОВЕК В ТЕЛОГРЕЙКЕ.wav

Пиковый уровень 100.0 %
Качество диапазона 100.0 %
CRC теста FB4B3A31
CRC копии FB4B3A31
Копирование... OK

Ошибок не произошло

Конец отчёта
Категория Музыка / Мультимедиа RSS лента
Добавлен (9 месяцев назад)
Просмотров 9 раз (a)
Взят 16 раз (a)
Файлы 9, 551.88 MB (578 689 966 байт)
Раздал ViKa  (Искать торренты)
Участники
Раздают (отдают): 0 (10), Скачивают (качают): 0 (1), Завершено: 2 (2)
Просматривают

« TDHDriver aka Heaven42 - My Fantasy World (2015) MP3 -†- ¿? -†- Guf Slim - GuSli (2017) MP3 »

:: Список Комментариев
Нет комментариев.

 Нет комментариев
Самые активные релизы за неделю
 
Музыка / Мультимедиа
Дельфин (Dolphin) - Край ( Альтернатива / 2019 )
  • Дельфин (Dolphin) - Край ( Альтернатива / 2019 )
  • ALL The Best ( Disco / 2017 )
  • Pure Winter Bass ( Drum & bass / 2019 )
  • Ace - Time for Another (1975) ( Rock / 2018 )
  • Mister Misery - Unalive ( Rock / 2019 )
  • The Hits Album: The Car Album... On The Road Again (4CD) ( Pop / 2019 )
  • Billy Joe Royal - Down in the Boondocks (1965, WEB) ( Rock / 2015 )
  • Farshid Arabi - Discography / Metal
  • Громкие новинки месяца (Vol.50) ( Pop / 2019 )
  • Uplifting Only Top 15 (November 2019, WEB) ( Trance / 2019 )
  • Фристайл - MP3 Коллекция ( Поп / 2008 )
  • 100 Christmas Classics  ( Classical / 2019 )

Счетчики
 
Рейтинг@Mail.ru Яндекс.Метрика Счетчик PR-CY.Rank Анализ сайта hit-muzik.ru

Поделится ссылкой
 


.:Hit-Muzik.ru :: Tesla v. Pearl (V7):.
Страничка сформирована за 0.010 секунд.