Привет, Гость
 

Войти на сайт
Регистрация
Восстановить Пароль

Наша группа в ВК
 

Правообладателям
 
Для удаления авторских файлов, пишите по адреcу: abuse@hit-muzik.ru

здесь должен быть ваш плеер
Связанные раздачи
 
Загрузка / Обновление

:: Детали раздачи
Раздача является мультитрекерной — учтите, количество раздающих не будет совпадать с количеством участников на сайте (скачивание на клиентской стороне зависит от настроек µTorrent клиент программы, настройки -> Включить DHT, Обмен пирами и Поиск лок-х пиров).
Если висит надпись, пиры по нулям - не бойтесь, возможность скачать повторно раздачу - есть. Попробуйте, в случае отказа - прокоментируйте или нажмите на "Позвать скачавших".

(Score) Earthworm Jim 2 / Земляной Червяк Джим 2 (by Tommy Tallarico) - 1996, FLAC (tracks+.cue), Lossless

Скачать Magnet-ссылка (альтернативная ссылка для скачивания файла)
Теги score, 1996
Описание
(Score) Earthworm Jim 2 / Земляной Червяк Джим 2 (by Tommy Tallarico) - 1996, FLAC (tracks+.cue), Lossless
Earthworm Jim 2 / Земляной Червяк Джим 2
Жанр: Score
Композитор: Tommy Tallarico
Год выпуска диска: 1996
Производитель диска: США
Аудио кодек: FLAC
Тип рипа: tracks+.cue
Битрейт аудио: lossless
Продолжительность: 34:39
Источник: неизвестно
Трэклист:
01 - Tommy Tallarico - Title (1:08)
02 - Tommy Tallarico - Anything But Tangerines (Tangerine) (2:02)
03 - Tommy Tallarico - Inflated Head (2:07)
04 - Tommy Tallarico - Continue To Rock (0:39)
05 - Tommy Tallarico - Udderly Abducted (1:48)
06 - Tommy Tallarico - Bonus (2:53)
07 - Tommy Tallarico - Puppy Love (1:53)
08 - Tommy Tallarico - Subterranean (Lorenzens Soil & ISO 9000) (5:40)
09 - Tommy Tallarico - See Jim Run, Run Jim Run (6:19)
10 - Tommy Tallarico - Villi People (5:37)
11 - Tommy Tallarico - The Flyng King & Level Ate (2:28)
12 - Tommy Tallarico - Forked (1:21)
13 - Tommy Tallarico - Ending (0:45)
Отчёт EAC



REM GENRE OST
REM DATE 1996
PERFORMER "Tommy Tallarico"
TITLE "Earthworm Jim 2"
FILE "01 - Title.flac" WAVE
TRACK 01 AUDIO
TITLE "Title"
REM REPLAYGAIN_TRACK_GAIN -5.73 dB
REM REPLAYGAIN_TRACK_PEAK 0.998871
INDEX 01 00:00:00
FILE "02 - Anything But Tangerines (Tangerine).flac" WAVE
TRACK 02 AUDIO
TITLE "Anything But Tangerines (Tangerine)"
INDEX 01 00:00:00
FILE "03 - Inflated Head.flac" WAVE
TRACK 03 AUDIO
TITLE "Inflated Head"
INDEX 01 00:00:00
FILE "04 - Continue To Rock.flac" WAVE
TRACK 04 AUDIO
TITLE "Continue To Rock"
REM REPLAYGAIN_TRACK_GAIN -1.77 dB
REM REPLAYGAIN_TRACK_PEAK 0.961365
INDEX 01 00:00:00
FILE "05 - Udderly Abducted.flac" WAVE
TRACK 05 AUDIO
TITLE "Udderly Abducted"
REM REPLAYGAIN_TRACK_GAIN -5.65 dB
REM REPLAYGAIN_TRACK_PEAK 0.998901
INDEX 01 00:00:00
FILE "06 - Bonus.flac" WAVE
TRACK 06 AUDIO
TITLE "Bonus"
REM REPLAYGAIN_TRACK_GAIN -6.58 dB
REM REPLAYGAIN_TRACK_PEAK 0.998901
INDEX 01 00:00:00
FILE "07 - Puppy Love.flac" WAVE
TRACK 07 AUDIO
TITLE "Puppy Love"
REM REPLAYGAIN_TRACK_GAIN -5.69 dB
REM REPLAYGAIN_TRACK_PEAK 0.998871
INDEX 01 00:00:00
FILE "08 - Subterranean (Lorenzens Soil & ISO 9000).flac" WAVE
TRACK 08 AUDIO
TITLE "Subterranean (Lorenzens Soil & ISO 9000)"
REM REPLAYGAIN_TRACK_GAIN -5.14 dB
REM REPLAYGAIN_TRACK_PEAK 0.998901
INDEX 01 00:00:00
FILE "09 - See Jim Run, Run Jim Run.flac" WAVE
TRACK 09 AUDIO
TITLE "See Jim Run, Run Jim Run"
REM REPLAYGAIN_TRACK_GAIN -4.09 dB
REM REPLAYGAIN_TRACK_PEAK 0.998901
INDEX 01 00:00:00
FILE "10 - Villi People.flac" WAVE
TRACK 10 AUDIO
TITLE "Villi People"
REM REPLAYGAIN_TRACK_GAIN -0.23 dB
REM REPLAYGAIN_TRACK_PEAK 0.942505
INDEX 01 00:00:00
FILE "11 - The Flyng King & Level Ate.flac" WAVE
TRACK 11 AUDIO
TITLE "The Flyng King & Level Ate"
REM REPLAYGAIN_TRACK_GAIN -6.60 dB
REM REPLAYGAIN_TRACK_PEAK 0.998901
INDEX 01 00:00:00
FILE "12 - Forked.flac" WAVE
TRACK 12 AUDIO
TITLE "Forked"
REM REPLAYGAIN_TRACK_GAIN -5.37 dB
REM REPLAYGAIN_TRACK_PEAK 0.998840
INDEX 01 00:00:00
FILE "13 - Ending.flac" WAVE
TRACK 13 AUDIO
TITLE "Ending"
REM REPLAYGAIN_TRACK_GAIN -4.58 dB
REM REPLAYGAIN_TRACK_PEAK 0.998871
INDEX 01 00:00:00


Вторая часть культовой игры, вторая часть великолепного музыкального ряда. В свое время очень долго искал сей саундтрек, потерял надежду и совершенно случайно наткнулся на лосслесс! Надеюсь, вы также будете приятно удивлены увидеть этот релиз на нашем трекере https://static.t-ru.org/smiles/icon_smile.gif

Приятного прослушивания! https://static.t-ru.org/smiles/icon_smile.gif
Категория Музыка / Мультимедиа RSS лента
Добавлен (5 месяцев назад)
Просмотров 0 раз (a)
Взят 1 раз (a)
Файлы 0, 0.00 kB (0 байт)
Раздал ViKa  (Искать торренты)
Участники
Завершено: 0 (0)
Просматривают

« (Rock, Cabaret, Альтернативный шансон) Девять - Дискография, Чой - Шифровальщик, MP3 (tracks), 320 kbps -†- ¿? -†- (Score) Earthworm Jim / Земляной Червяк Джим [Special Edition] (by Tommy Tallarico) - 1994, FLAC (tracks+.cue), lossless »

:: Список Комментариев
Нет комментариев.

 Нет комментариев
Самые активные релизы за неделю
 
Музыка / Мультимедиа
Metallica - Luzhniki Stadium, Moscow, Russia, 21 July 2019 (2CD) ( Metal / 2019 )
  • Metallica - Luzhniki Stadium, Moscow, Russia, 21 July 2019 (2CD) ( Metal / 2019 )
  • Ковчег: Сборник Русского Рока ( Рок / 2019 )
  • Sochi Meets Ibiza (WEB) ( Downtempo / 2019 )
  • Princesse: Hit Of French Song ( Pop / 2019 )
  • New Format Disco: Progressive Mix ( Disco / 2019 )
  • Disco 90's ( Disco / 2019 )
  • Jaco Pastorius - Collection (JazzPoint Records, 6 CD) ( Rock / 1998 )
  • TOP Non-Stop 2010-2015 - Dance House Music ( House / 2019 )
  • Старое по новому (50-50) ( Поп / 2019 )
  • DJ Farta - Пацанская сборка в тачку (Vol.38) ( House / 2019 )
  • Зайцев.Нет лучшие новинки (Август 2019) ( Поп / 2019 )
  • Mainstage Trance Anthems (2019, WEB) ( Trance / 2019 )

Счетчики
 
Рейтинг@Mail.ru Яндекс.Метрика Счетчик PR-CY.Rank Анализ сайта hit-muzik.ru

Поделится ссылкой
 


.:Hit-Muzik.ru :: Tesla v. Pearl (V7):.
Страничка сформирована за 0.028 секунд.