Привет, Гость
 

Войти на сайт
Регистрация
Восстановить Пароль

Наша группа в ВК
 

Правообладателям
 
Для удаления авторских файлов, пишите по адреcу: abuse@hit-muzik.ru

здесь должен быть ваш плеер
Связанные раздачи
 
Загрузка / Обновление

:: Детали раздачи
Раздача является мультитрекерной — учтите, количество раздающих не будет совпадать с количеством участников на сайте (скачивание на клиентской стороне зависит от настроек µTorrent клиент программы, настройки -> Включить DHT, Обмен пирами и Поиск лок-х пиров).
Если висит надпись, пиры по нулям - не бойтесь, возможность скачать повторно раздачу - есть. Попробуйте, в случае отказа - прокоментируйте или нажмите на "Позвать скачавших".

(Score) Earthworm Jim / Земляной Червяк Джим [Special Edition] (by Tommy Tallarico) - 1994, FLAC (tracks+.cue), lossless

Скачать Magnet-ссылка (альтернативная ссылка для скачивания файла)
Теги score, 1994
Описание
(Score) Earthworm Jim / Земляной Червяк Джим [Special Edition] (by Tommy Tallarico) - 1994, FLAC (tracks+.cue), lossless
Earthworm Jim (Special Edition)
Жанр: Score
Композитор: Tommy Tallarico
Год выпуска диска: 1994
Производитель диска: США
Аудио кодек: FLAC
Тип рипа: tracks+.cue
Битрейт аудио: lossless
Продолжительность: 35:18
Источник: неизвестно
Треклист:
01 - New Junk City (2:17)
02 - Andy Asteroids (1:44)
03 - Psycrow (1:08)
04 - What The Heck! (2:28)
05 - Snot A Problem (Major Mucus) (1:51)
06 - Level 5 (1:52)
07 - Who Turned Out The Lights? (1:50)
08 - For Peat's Sake (1:35)
09 - Use Your Head (Buttville) (2:22)
10 - Slug For A Butt (Down The Tubes) (2:25)
11 - Ending (1:33)
12 - Big Bruty [Bonus Cut] (3:45)
13 - Easy End [Bonus Cut] (5:27)
14 - Hard End [Bonus Cut] (1:18)
15 - Intestinal Distress [Bonus Cut] (1:54)
16 - Lose Race [Bonus Cut] (0:07)
17 - Rodeo Jim [Bonus Cut] (0:11)
18 - Sound 1 [Bonus Cut] (0:07)
19 - Sound 2 [Bonus Cut] (0:06)
20 - Sound 3 [Bonus Cut] (0:06)
21 - Sound 4 [Bonus Cut] (0:06)
22 - Sound 5 [Bonus Cut] (0:09)
23 - Title Tune [Bonus Cut] (0:56)
Отчёт EAC



REM GENRE Soundtrack > Score
REM DATE 1994
PERFORMER "Tommy Tallarico"
TITLE "(OST) Earthworm Jim [Special Edition]"
REM REPLAYGAIN_ALBUM_GAIN -3.71 dB
REM REPLAYGAIN_ALBUM_PEAK 0.999939
FILE "01 - New Junk City.wav" WAVE
TRACK 01 AUDIO
TITLE "New Junk City"
PERFORMER "Tommy Tallarico"
REM REPLAYGAIN_TRACK_GAIN -4.87 dB
REM REPLAYGAIN_TRACK_PEAK 0.953644
INDEX 01 00:00:00
FILE "02 - Andy Asteroids.wav" WAVE
TRACK 02 AUDIO
TITLE "Andy Asteroids"
PERFORMER "Tommy Tallarico"
REM REPLAYGAIN_TRACK_GAIN -3.74 dB
REM REPLAYGAIN_TRACK_PEAK 0.953644
INDEX 01 00:00:00
FILE "03 - Psycrow.wav" WAVE
TRACK 03 AUDIO
TITLE "Psycrow"
PERFORMER "Tommy Tallarico"
REM REPLAYGAIN_TRACK_GAIN -2.69 dB
REM REPLAYGAIN_TRACK_PEAK 0.953613
INDEX 01 00:00:00
FILE "04 - What The Heck!.wav" WAVE
TRACK 04 AUDIO
TITLE "What The Heck!"
PERFORMER "Tommy Tallarico"
REM REPLAYGAIN_TRACK_GAIN -3.21 dB
REM REPLAYGAIN_TRACK_PEAK 0.999939
INDEX 01 00:00:00
FILE "05 - Snot A Problem (Major Mucus).wav" WAVE
TRACK 05 AUDIO
TITLE "Snot A Problem (Major Mucus)"
PERFORMER "Tommy Tallarico"
REM REPLAYGAIN_TRACK_GAIN -0.44 dB
REM REPLAYGAIN_TRACK_PEAK 0.909271
INDEX 01 00:00:00
FILE "06 - Level 5.wav" WAVE
TRACK 06 AUDIO
TITLE "Level 5"
PERFORMER "Tommy Tallarico"
REM REPLAYGAIN_TRACK_GAIN -0.96 dB
REM REPLAYGAIN_TRACK_PEAK 0.909271
INDEX 01 00:00:00
FILE "07 - Who Turned Out The Lights!.wav" WAVE
TRACK 07 AUDIO
TITLE "Who Turned Out The Lights?"
PERFORMER "Tommy Tallarico"
REM REPLAYGAIN_TRACK_GAIN -3.16 dB
REM REPLAYGAIN_TRACK_PEAK 0.920868
INDEX 01 00:00:00
FILE "08 - For Peat's Sake.wav" WAVE
TRACK 08 AUDIO
TITLE "For Peat's Sake"
PERFORMER "Tommy Tallarico"
REM REPLAYGAIN_TRACK_GAIN -1.40 dB
REM REPLAYGAIN_TRACK_PEAK 0.909271
INDEX 01 00:00:00
FILE "09 - Use Your Head (Buttville).wav" WAVE
TRACK 09 AUDIO
TITLE "Use Your Head (Buttville)"
PERFORMER "Tommy Tallarico"
REM REPLAYGAIN_TRACK_GAIN -4.18 dB
REM REPLAYGAIN_TRACK_PEAK 0.953644
INDEX 01 00:00:00
FILE "10 - Slug For A Butt (Down The Tubes).wav" WAVE
TRACK 10 AUDIO
TITLE "Slug For A Butt (Down The Tubes)"
PERFORMER "Tommy Tallarico"
REM REPLAYGAIN_TRACK_GAIN -2.51 dB
REM REPLAYGAIN_TRACK_PEAK 0.953613
INDEX 01 00:00:00
FILE "11 - Ending.wav" WAVE
TRACK 11 AUDIO
TITLE "Ending"
PERFORMER "Tommy Tallarico"
REM REPLAYGAIN_TRACK_GAIN -5.15 dB
REM REPLAYGAIN_TRACK_PEAK 0.953644
INDEX 01 00:00:00
FILE "12 - Big Bruty [Bonus Cut].wav" WAVE
TRACK 12 AUDIO
TITLE "Big Bruty [Bonus Cut]"
PERFORMER "Tommy Tallarico"
REM REPLAYGAIN_TRACK_GAIN +0.05 dB
REM REPLAYGAIN_TRACK_PEAK 0.909271
INDEX 01 00:00:00
FILE "13 - Easy End [Bonus Cut].wav" WAVE
TRACK 13 AUDIO
TITLE "Easy End [Bonus Cut]"
PERFORMER "Tommy Tallarico"
REM REPLAYGAIN_TRACK_GAIN -7.41 dB
REM REPLAYGAIN_TRACK_PEAK 0.999969
INDEX 01 00:00:00
FILE "14 - Hard End [Bonus Cut].wav" WAVE
TRACK 14 AUDIO
TITLE "Hard End [Bonus Cut]"
PERFORMER "Tommy Tallarico"
REM REPLAYGAIN_TRACK_GAIN -8.08 dB
REM REPLAYGAIN_TRACK_PEAK 1.000000
INDEX 01 00:00:00
FILE "15 - Intestinal Distress [Bonus Cut].wav" WAVE
TRACK 15 AUDIO
TITLE "Intestinal Distress [Bonus Cut]"
PERFORMER "Tommy Tallarico"
REM REPLAYGAIN_TRACK_GAIN -1.94 dB
REM REPLAYGAIN_TRACK_PEAK 0.999969
INDEX 01 00:00:00
FILE "16 - Lose Race [Bonus Cut].wav" WAVE
TRACK 16 AUDIO
TITLE "Lose Race [Bonus Cut]"
PERFORMER "Tommy Tallarico"
REM REPLAYGAIN_TRACK_GAIN +2.05 dB
REM REPLAYGAIN_TRACK_PEAK 0.909271
INDEX 01 00:00:00
FILE "17 - Rodeo Jim [Bonus Cut].wav" WAVE
TRACK 17 AUDIO
TITLE "Rodeo Jim [Bonus Cut]"
PERFORMER "Tommy Tallarico"
REM REPLAYGAIN_TRACK_GAIN -2.32 dB
REM REPLAYGAIN_TRACK_PEAK 0.909271
INDEX 01 00:00:00
FILE "18 - Sound 1 [Bonus Cut].wav" WAVE
TRACK 18 AUDIO
TITLE "Sound 1 [Bonus Cut]"
PERFORMER "Tommy Tallarico"
REM REPLAYGAIN_TRACK_GAIN -4.91 dB
REM REPLAYGAIN_TRACK_PEAK 0.999969
INDEX 01 00:00:00
FILE "19 - Sound 2 [Bonus Cut].wav" WAVE
TRACK 19 AUDIO
TITLE "Sound 2 [Bonus Cut]"
PERFORMER "Tommy Tallarico"
REM REPLAYGAIN_TRACK_GAIN -0.39 dB
REM REPLAYGAIN_TRACK_PEAK 0.909271
INDEX 01 00:00:00
FILE "20 - Sound 3 [Bonus Cut].wav" WAVE
TRACK 20 AUDIO
TITLE "Sound 3 [Bonus Cut]"
PERFORMER "Tommy Tallarico"
REM REPLAYGAIN_TRACK_GAIN +0.31 dB
REM REPLAYGAIN_TRACK_PEAK 0.909271
INDEX 01 00:00:00
FILE "21 - Sound 4 [Bonus Cut].wav" WAVE
TRACK 21 AUDIO
TITLE "Sound 4 [Bonus Cut]"
PERFORMER "Tommy Tallarico"
REM REPLAYGAIN_TRACK_GAIN -6.60 dB
REM REPLAYGAIN_TRACK_PEAK 0.999969
INDEX 01 00:00:00
FILE "22 - Sound 5 [Bonus Cut].wav" WAVE
TRACK 22 AUDIO
TITLE "Sound 5 [Bonus Cut]"
PERFORMER "Tommy Tallarico"
REM REPLAYGAIN_TRACK_GAIN -4.41 dB
REM REPLAYGAIN_TRACK_PEAK 0.909271
INDEX 01 00:00:00
FILE "23 - Title Tune [Bonus Cut].wav" WAVE
TRACK 23 AUDIO
TITLE "Title Tune [Bonus Cut]"
PERFORMER "Tommy Tallarico"
REM REPLAYGAIN_TRACK_GAIN -1.21 dB
REM REPLAYGAIN_TRACK_PEAK 0.909271
INDEX 01 00:00:00


Оригинальный саундтрек к легендарной "игрушке" в исполнении Томми Талларико.
Приятного прослушивания! https://static.t-ru.org/smiles/icon_smile.gif
Категория Музыка / Мультимедиа RSS лента
Добавлен (5 месяцев назад)
Просмотров 0 раз (a)
Взят 0 раз (a)
Файлы 0, 0.00 kB (0 байт)
Раздал ViKa  (Искать торренты)
Участники
Завершено: 0 (0)
Просматривают

« (Score) Earthworm Jim 2 / Земляной Червяк Джим 2 (by Tommy Tallarico) - 1996, FLAC (tracks+.cue), Lossless -†- ¿? -†- (Минусовки) [Retro, Vocal] Муслим Магомаев - Коллекция минусовок - 2008, MP3 (tracks), 128-192 kbps »

:: Список Комментариев
Нет комментариев.

 Нет комментариев
Самые активные релизы за неделю
 
Музыка / Мультимедиа
Metallica - Luzhniki Stadium, Moscow, Russia, 21 July 2019 (2CD) ( Metal / 2019 )
  • Metallica - Luzhniki Stadium, Moscow, Russia, 21 July 2019 (2CD) ( Metal / 2019 )
  • Ковчег: Сборник Русского Рока ( Рок / 2019 )
  • Sochi Meets Ibiza (WEB) ( Downtempo / 2019 )
  • Princesse: Hit Of French Song ( Pop / 2019 )
  • New Format Disco: Progressive Mix ( Disco / 2019 )
  • Disco 90's ( Disco / 2019 )
  • Jaco Pastorius - Collection (JazzPoint Records, 6 CD) ( Rock / 1998 )
  • TOP Non-Stop 2010-2015 - Dance House Music ( House / 2019 )
  • Старое по новому (50-50) ( Поп / 2019 )
  • DJ Farta - Пацанская сборка в тачку (Vol.38) ( House / 2019 )
  • Зайцев.Нет лучшие новинки (Август 2019) ( Поп / 2019 )
  • Mainstage Trance Anthems (2019, WEB) ( Trance / 2019 )

Счетчики
 
Рейтинг@Mail.ru Яндекс.Метрика Счетчик PR-CY.Rank Анализ сайта hit-muzik.ru

Поделится ссылкой
 


.:Hit-Muzik.ru :: Tesla v. Pearl (V7):.
Страничка сформирована за 0.074 секунд.