Привет, Гость
 

Войти на сайт
Регистрация
Восстановить Пароль

Наша группа в ВК
 

Правообладателям
 
Для удаления авторских файлов, пишите по адреcу: abuse@hit-muzik.ru

здесь должен быть ваш плеер
Связанные раздачи
 
Загрузка / Обновление

:: Детали раздачи
Раздача является мультитрекерной — учтите, количество раздающих не будет совпадать с количеством участников на сайте (скачивание на клиентской стороне зависит от настроек µTorrent клиент программы, настройки -> Включить DHT, Обмен пирами и Поиск лок-х пиров).
Если висит надпись, пиры по нулям - не бойтесь, возможность скачать повторно раздачу - есть. Попробуйте, в случае отказа - прокоментируйте или нажмите на "Позвать скачавших".

(Soundtrack) Final Fantasy Remix (by Ante & Nobuo Uematsu) - 2008, FLAC (tracks+.cue), lossless

Скачать Magnet-ссылка (альтернативная ссылка для скачивания файла)
Теги [Не выбрано, автопоиск неудачен, 3 недели назад]
Описание http://i14.fastpic.ru/big/2010/1226/e0/884a0be4df03877b5c15e9e9d0bb60e0.png[/img][img]http://i14.fastpic.ru/big/2010/1226/0a/9dc50527166e233e3182
3281fb5c420a.pngFinal Fantasy RemixЖанр: Soundtrack || Композиторы: Ante & Nobuo Uematsu || Год выпуска: 2008 || Производитель: Japan || Лейбл: Square Enix || Catalog#: SQEX-10119
Аудио кодек: FLAC (*.flac) || Тип рипа: tracks+.cue || Битрейт аудио: lossless || Продолжительность: 00:00:55:36 || Сканы: Имеются || Источник: what.cd(Gravskrift)http://i14.fastpic.ru/big/2010/1226/1b/743e84b9fe27ce6091c684e5eda5d61b.jpg01. Prelude / Final Fantasy II (5:04) 877 kBit/s
02. Eternal Wind / Final Fantasy III (4:57) 970 kBit/s
03. Terra's Theme / Piano Collections Final Fantasy VI (4:31) 705 kBit/s
04. Opening - Bombing Mission - / Final Fantasy VII (5:35) 888 kBit/s
05. JENOVA / Final Fantasy VII (5:15) 832 kBit/s
06. Liberi Fatali / Final Fantasy VIII (4:01) 868 kBit/s
07. Blue Fields / Final Fantasy VIII (5:34) 807 kBit/s
08. The Final Battle / Final Fantasy IX (4:21) 858 kBit/s
09. Zanarkand / Final Fantasy X (3:47) 709 kBit/s
10. Ronfaure / Final Fantasy XI (5:04) 824 kBit/s
11. Maybe I'm a Lion / The Black Mages II The Skies Above (3:26) 900 kBit/s
12. Mambo de Chocobo / Final Fantasy V (4:01) 826 kBit/shttp://i13.fastpic.ru/big/2010/1213/c6/79926cdc4456dd9b79874c9eeeee38c6.png
http://i13.fastpic.ru/big/2010/1213/cd/f24a0ca9d5af7f3be76c9d06cfb627cd.png
http://i14.fastpic.ru/big/2010/1226/64/a4d9569cb63525a1611c9cf166563364.png
.log



REM GENRE Soundtrack
REM DATE 2008
REM DISCID A90D070C
REM COMMENT "ExactAudioCopy v0.99pb5"
CATALOG 0000000000000
PERFORMER "Ante"
TITLE "Final Fantasy Remix"
FILE "Ante - 01. Prelude , FINAL FANTASY II.flac" WAVE
TRACK 01 AUDIO
TITLE "Prelude / FINAL FANTASY II"
PERFORMER "Ante"
ISRC 000000000000
INDEX 01 00:00:00
FILE "Ante - 02. Eternal Wind , FINAL FANTASY III.flac" WAVE
TRACK 02 AUDIO
TITLE "Eternal Wind / FINAL FANTASY III"
PERFORMER "Ante"
ISRC 000000000000
INDEX 01 00:00:00
FILE "Ante - 03. Terra's Theme , Piano Collections FINAL FANTASY VI.flac" WAVE
TRACK 03 AUDIO
TITLE "Terra's Theme / Piano Collections FINAL FANTASY VI"
PERFORMER "Ante"
ISRC 000000000000
INDEX 01 00:00:00
FILE "Ante - 04. Opening - Bombing Mission - , FINAL FANTASY VII.flac" WAVE
TRACK 04 AUDIO
TITLE "Opening - Bombing Mission - / FINAL FANTASY VII"
PERFORMER "Ante"
ISRC 000000000000
INDEX 01 00:00:00
FILE "Ante - 05. JENOVA , FINAL FANTASY VII.flac" WAVE
TRACK 05 AUDIO
TITLE "JENOVA / FINAL FANTASY VII"
PERFORMER "Ante"
ISRC 000000000000
INDEX 01 00:00:00
FILE "Ante - 06. Liberi Fatali , FINAL FANTASY VIII.flac" WAVE
TRACK 06 AUDIO
TITLE "Liberi Fatali / FINAL FANTASY VIII"
PERFORMER "Ante"
ISRC 000000000000
INDEX 01 00:00:00
FILE "Ante - 07. Blue Fields , FINAL FANTASY VIII.flac" WAVE
TRACK 07 AUDIO
TITLE "Blue Fields / FINAL FANTASY VIII"
PERFORMER "Ante"
ISRC 000000000000
INDEX 01 00:00:00
FILE "Ante - 08. The Final Battle , FINAL FANTASY IX.flac" WAVE
TRACK 08 AUDIO
TITLE "The Final Battle / FINAL FANTASY IX"
PERFORMER "Ante"
ISRC 000000000000
INDEX 01 00:00:00
FILE "Ante - 09. Zanarkand , FINAL FANTASY X.flac" WAVE
TRACK 09 AUDIO
TITLE "Zanarkand / FINAL FANTASY X"
PERFORMER "Ante"
ISRC 000000000000
INDEX 01 00:00:00
FILE "Ante - 10. Ronfaure , FINAL FANTASY XI.flac" WAVE
TRACK 10 AUDIO
TITLE "Ronfaure / FINAL FANTASY XI"
PERFORMER "Ante"
ISRC 000000000000
INDEX 01 00:00:00
FILE "Ante - 11. Maybe I'm a Lion , THE BLACK MAGES II The Skies Above.flac" WAVE
TRACK 11 AUDIO
TITLE "Maybe I'm a Lion / THE BLACK MAGES II The Skies Above"
PERFORMER "Ante"
ISRC 000000000000
INDEX 01 00:00:00
FILE "Ante - 12. Mambo de Chocobo , FINAL FANTASY V.flac" WAVE
TRACK 12 AUDIO
TITLE "Mambo de Chocobo / FINAL FANTASY V"
PERFORMER "Ante"
ISRC 000000000000
INDEX 01 00:00:00
Категория Музыка / Мультимедиа RSS лента
Добавлен (5 месяцев назад)
Просмотров 0 раз (a)
Взят 0 раз (a)
Файлы 0, 0.00 kB (0 байт)
Раздал ViKa  (Искать торренты)
Участники
Завершено: 0 (0)
Просматривают

« (Pagan / Folk Metal) Злата Сварга - Слёзы Леса [demo] (2006), MP3 (tracks), 192 kbps -†- ¿? -†- (Electronic) Юрий Чернявский и Владимир Матецкий Проджект Банановые Острова 1983г. - 1983, MP3 (tracks), 320 kbps »

:: Список Комментариев
Нет комментариев.

 Нет комментариев
Самые активные релизы за неделю
 
Музыка / Мультимедиа
Voices Of Chillout (Sensuale Female Soul Edition, WEB) ( Downtempo / 2019 )
  • Voices Of Chillout (Sensuale Female Soul Edition, WEB) ( Downtempo / 2019 )
  • Ultima Audio: First Year Of (Mixed By Twinwaves, WEB) ( Trance / 2019 )
  • Summer Europop Music ( Pop / 2019 )
  • Jazz Best Collection 1000 (Vol.1) - Collection / Jazz
  • Purgatory: Metal Compilation ( Metal / 2019 )
  • Dance Party 2019 ( Dance / 2019 )
  • Creedence Clearwater Revival - Absolute Originals (1968-1972) / Rock / 2006 / Hi-Res / SACD-R
  • Summer Club Hits 2019 (WEB) ( Pop / 2019 )
  • I Love Drum & Bass Music ( Drum & bass / 2018 )
  • Top Shazam (13.08.2019) ( Pop / 2019 )
  • Sweet Love Lounge (Chillout Your Mind, WEB) ( Downtempo / 2019 )
  • Sochi Meets Ibiza (WEB) ( Downtempo / 2019 )

Счетчики
 
Рейтинг@Mail.ru Яндекс.Метрика Счетчик PR-CY.Rank Анализ сайта hit-muzik.ru

Поделится ссылкой
 


.:Hit-Muzik.ru :: Tesla v. Pearl (V7):.
Страничка сформирована за 0.037 секунд.