Привет, Гость
 

Войти на сайт
Регистрация
Восстановить Пароль

Наша группа в ВК
 

Правообладателям
 
Для удаления авторских файлов, пишите по адреcу: abuse@hit-muzik.ru

здесь должен быть ваш плеер
Связанные раздачи
 
Загрузка / Обновление

:: Детали раздачи
Раздача является мультитрекерной — учтите, количество раздающих не будет совпадать с количеством участников на сайте (скачивание на клиентской стороне зависит от настроек µTorrent клиент программы, настройки -> Включить DHT, Обмен пирами и Поиск лок-х пиров).
Если висит надпись, пиры по нулям - не бойтесь, возможность скачать повторно раздачу - есть. Попробуйте, в случае отказа - прокоментируйте или нажмите на "Позвать скачавших".

The Beatles - Red Blue Albums (1962-1970) Japanese Edition, Remastered, 2010 [FLAC|Lossless|image + .cue]

Скачать Magnet-ссылка (альтернативная ссылка для скачивания файла)
Теги beat, pop rock, 1962
Описание
The Beatles - Red   Blue Albums (1962-1970) Japanese Edition, Remastered, 2010 [FLAC|Lossless|image + .cue]
The Beatles - Red & Blue Albums [Japanese Edition] (1962-1970)
https://c.radikal.ru/c15/1811/75/852718dfa692.jpg Год: 1962-1970
Жанр: beat, pop rock
Продолжительность: 02:42:37

Кодек: FLAC (image + .cue)
Битрейт: Lossless
Страна-производитель диска: http://nnm-club.me/forum/images/flags/japan.gif Japan
Издатель (лейбл): EMI Music
Наличие сканов: Да
Источник: phantomas63
Описание:
Сборник представляет собой антологию лучших композиций The Beatles за период 1962-1970...

Битлы принимали активное участие в подборке песен для обоих - как Красного, так и Синего альбомов, а также при разработке дизайна, подборе цветов и фотографий. https://a.radikal.ru/a02/1811/40/3587a9e75e52.jpg Номер по каталогу: TOCP 71017 (5099990675324)
Прoдолжительность: 00:30:36

01. Love Me Do
02. Please Please Me
03. From Me To You
04. She Loves You
05. I Want To Hold Your Hand
06. All My Loving
07. Can't Buy Me Love
08. A Hard Day's Night
09. And I Love Her
10. Eight Days A Week
11. I Feel Fine
12. Ticket To Ride
13. Yesterday Код: выделить все
Exact Audio Copy V0.99 prebeta 5 from 4. May 2009

EAC extraction logfile from 5. November 2010, 20:27

The Beatles / Red Album  1962-1966 (CD 1)

Used drive  : ASUS    DRW-2014L1T   Adapter: 2  ID: 2

Read mode               : Secure
Utilize accurate stream : Yes
Defeat audio cache      : Yes
Make use of C2 pointers : No

Read offset correction                      : 6
Overread into Lead-In and Lead-Out          : No
Fill up missing offset samples with silence : Yes
Delete leading and trailing silent blocks   : No
Null samples used in CRC calculations       : Yes
Used interface                              : Native Win32 interface for Win NT & 2000

Used output format              : User Defined Encoder
Selected bitrate                : 768 kBit/s
Quality                         : High
Add ID3 tag                     : No
Command line compressor         : F:\Program Files\Exact Audio Copy\FLAC\FLAC.EXE
Additional command line options : -T "DATE=%y" -T "GENRE=%m" -8 -V %s

TOC of the extracted CD

     Track |   Start  |  Length  | Start sector | End sector
    ---------------------------------------------------------
        1  |  0:00.00 |  2:22.09 |         0    |    10658
        2  |  2:22.09 |  2:01.25 |     10659    |    19758
        3  |  4:23.34 |  1:57.68 |     19759    |    28601
        4  |  6:21.27 |  2:22.49 |     28602    |    39300
        5  |  8:44.01 |  2:26.54 |     39301    |    50304
        6  | 11:10.55 |  2:09.17 |     50305    |    59996
        7  | 13:19.72 |  2:13.08 |     59997    |    69979
        8  | 15:33.05 |  2:34.47 |     69980    |    81576
        9  | 18:07.52 |  2:31.31 |     81577    |    92932
       10  | 20:39.08 |  2:44.40 |     92933    |   105272
       11  | 23:23.48 |  2:20.30 |    105273    |   115802
       12  | 25:44.03 |  3:11.12 |    115803    |   130139
       13  | 28:55.15 |  2:05.40 |    130140    |   139554

Range status and errors

Selected range

     Filename W:\EAC\The Beatles - Red Album  1962-1966 (CD 1)\The Beatles - Red Album  1962-1966 (CD 1).wav

     Peak level 98.7 %
     Range quality 100.0 %
     Test CRC 6B03F8A7
     Copy CRC 6B03F8A7
     Copy OK

No errors occurred

AccurateRip summary

Track  1  not present in
Track  2  not present in
Track  3  not present in
Track  4  not present in
Track  5  not present in
Track  6  not present in
Track  7  not present in
Track  8  not present in
Track  9  not present in
Track 10  not present in
Track 11  not present in
Track 12  not present in
Track 13  not present in

None of the tracks are present in the AccurateRip

End of status report
Категория Музыка / Мультимедиа RSS лента
Добавлен (7 месяцев назад)
Просмотров 2 раз (a)
Взят 4 раз (a)
Файлы 109, 1.10 GB (1 181 356 358 байт)
Раздал ViKa  (Искать торренты)
Участники
Завершено: 0 (0)
Просматривают

« Docker's Guild - The Mystic Technocracy - Season 1: The Age Of Ignorance (2012) [FLAC|Lossless|image + .cue] -†- ¿? -†- David Cross - Crossing The Tracks (2018) [FLAC|Lossless|WEB-DL|tracks] »

:: Список Комментариев
Нет комментариев.

 Нет комментариев
Самые активные релизы за неделю
 
Музыка / Мультимедиа
100 Пудовый Хит 50+50 ( Pop / 2019 )
  • 100 Пудовый Хит 50+50 ( Pop / 2019 )
  • Cymbeline - 1965-1971 ( Rock / 2017 )
  • Кружатся диски. Хиты 80 х ( Эстрада / 2005 )
  • Airwave - Touareg (Remastered Deluxe Edition, WEB) ( Trance / 2019 )
  • Radio Kiss FM: Top 40 (10.11.2019) ( Pop / 2019 )
  • Дискотека 2019 Dance Club (Vol.195) ( Dance / 2019 )
  • The Hits Album: The Rock Album (4CD) ( Rock / 2019 )
  • Витас - Бит бомбит ( Поп / 2019 )
  • John Fogerty - 50 Year Trip Live at Red Rocks ( Rock / 2019 )
  • 5 Years Sunstate Records (WEB) ( House / 2019 )
  • Happy Nation: Reggae Collection ( Reggae / 2017 )
  • Rhythm Of Life: Electro House Session ( House / 2019 )

Счетчики
 
Рейтинг@Mail.ru Яндекс.Метрика Счетчик PR-CY.Rank Анализ сайта hit-muzik.ru

Поделится ссылкой
 


.:Hit-Muzik.ru :: Tesla v. Pearl (V7):.
Страничка сформирована за 0.023 секунд.