Привет, Гость

Войти на сайт
Регистрация
Восстановить Пароль

Наша группа в ВК

Правообладателям
Для удаления авторских файлов, пишите по адреcу: [email protected]

Связанные раздачи
Загрузка / Обновление

:: Детали раздачи
Раздача является мультитрекерной — учтите, количество раздающих не будет совпадать с количеством участников на сайте (скачивание на клиентской стороне зависит от настроек µTorrent клиент программы, настройки -> Включить DHT, Обмен пирами и Поиск лок-х пиров).
Если висит надпись, пиры по нулям - не бойтесь, возможность скачать повторно раздачу - есть. Попробуйте, в случае отказа - прокоментируйте или нажмите на "Позвать скачавших".

Beethoven’s 9 Symphonies - Leonard Bernstein, Wiener Philharmoniker - 1978-1979/2015 (Classical/Orhestral)

Скачать Magnet-ссылка (альтернативная ссылка для скачивания файла)
Теги classical, orhestral, 1978
Описание Beethoven’s 9 Symphonies
Leonard Bernstein, Wiener Philharmoniker https://i111.fastpic.ru/big/2020/0325/de/82926e699ddca6a8d211d9997d18a5de.jpgФормат записи/Источник записи: [DSD][SACD-R]
Наличие водяных знаков: Нет
Год издания/переиздания диска: 1978-1979/2015
Жанр: Classical/Orhestral
Издатель (лейбл): Deutsche Grammophon
Продолжительность: 06:08:14Контейнер: DFF (*.dff)
Тип рипа: image
Разрядность: 64(2,8 MHz/1 Bit)
Формат: DSD
Количество каналов: 2.0Доп. информация: DGG – UCGG-9079-80-81-82-83-84 (2015)
Источник (релизер): wardrobemalfunction (PS³SACD)
http://sa-cd.net/showtitle/10751

http://sa-cd.net/showtitle/10752

http://sa-cd.net/showtitle/10753

http://sa-cd.net/showtitle/10754

http://sa-cd.net/showtitle/10755

http://sa-cd.net/showtitle/10756

Треклист



===================================================================
foobar2000 1.4 / Dynamic Range Meter 1.1.1
log date: 2020-03-23 20:09:02
-------------------------------------------------------------------------------------------------------------
Analyzed: Leonard Bernstein / Beethoven: Symphonies No.1 & No.2
-------------------------------------------------------------------------------------------------------------
DR Peak RMS Duration Track
-------------------------------------------------------------------------------------------------------------
DR15 -6.27 dB -26.67 dB 9:27 01-Sym1 In C Major, Op.21 1. Adagio molto - Allegro con brio
DR16 -9.83 dB -30.70 dB 8:15 02-Sym1 In C Major, Op.21 2. Andante cantabile con moto
DR12 -6.79 dB -24.98 dB 3:19 03-Sym1 In C Major, Op.21 3. Menuetto (Allegro molto e vivace)
DR14 -6.51 dB -25.49 dB 5:59 04-Sym1 In C Major, Op.21 4. Adagio - Allegro molto e Vivace
DR15 -7.65 dB -26.33 dB 13:29 05-Sym2 In D Major, Op.36 1. Adagio molto - Allegro con brio
DR15-10.80 dB -30.82 dB 12:32 06-Sym2 In D Major, Op.36 2. Larghetto
DR15 -8.33 dB -29.12 dB 3:34 07-Sym2 In D Major, Op.36 3. Scherzo (Allegro)
DR14 -6.01 dB -26.70 dB 6:23 08-Sym2 In D Major, Op.36 4. Allegro molto
-------------------------------------------------------------------------------------------------------------
Number of tracks:8
Official DR value: DR15
Samplerate: 2822400 Hz / PCM Samplerate: 176400 Hz
Channels: 2
Bits per sample: 1
Bitrate: 5645 kbps
Codec: DSD64
====================================================================
foobar2000 1.3.13 / Замер динамического диапазона (DR) 1.1.1
Дата отчёта: 2020-03-25 16:23:08
--------------------------------------------------------------------------------
Анализ: Leonard Bernstein / Beethoven: Symphonies No.4 & No.5
--------------------------------------------------------------------------------
DR Пики RMS Продолжительность трека
--------------------------------------------------------------------------------
DR14 -6.22 дБ -26.20 дБ 11:32 01-Symphony No.4 In B Flat Major, Op.60 1. Adagio - Allegro vivace
DR15 -7.72 дБ -29.88 дБ 10:06 02-Symphony No.4 In B Flat Major, Op.60 2. Adagio
DR14 -8.86 дБ -28.07 дБ 5:58 03-Symphony No.4 In B Flat Major, Op.60 3. Allegro vivace
DR13 -7.25 дБ -26.41 дБ 7:02 04-Symphony No.4 In B Flat Major, Op.60 4. Allegro ma non troppo
DR14 -8.34 дБ -26.90 дБ 8:40 05-Symphony No.5 In C Minor, Op.67 1. Allegro con brio
DR15 -7.16 дБ -29.19 дБ 10:21 06-Symphony No.5 In C Minor, Op.67 2. Andante con moto
DR14 -7.40 дБ -29.96 дБ 5:22 07-Symphony No.5 In C Minor, Op.67 3. Allegro
DR13 -6.30 дБ -23.21 дБ 11:17 08-Symphony No.5 In C Minor, Op.67 4. Allegro
--------------------------------------------------------------------------------
Количество треков: 8
Реальные значения DR: DR14
Частота: 2822400 Гц / Частота PCM: 88200 Гц
Каналов: 2
Разрядность: 24
Битрейт: 5645 кбит/с
Кодек: DSD64
================================================================================
============================================================
foobar2000 1.4 / Dynamic Range Meter 1.1.1
log date: 2020-03-23 21:26:45
-------------------------------------------------------------------------------------------------
Analyzed: Leonard Bernstein / Beethoven: Symphonies No.7 & No.8
-------------------------------------------------------------------------------------------------
DR Peak RMS Duration Track
-------------------------------------------------------------------------------------------------
DR14 -5.82 dB -24.12 dB 14:20 01-Sym7 In A Major, Op.92 1. Poco sostenuto - Vivace
DR15 -7.17 dB -28.35 dB 8:55 02-Sym7 In A Major, Op.92 2. Allegretto
DR13 -5.71 dB -24.87 dB 8:59 03-Sym7 In A Major, Op.92 3. Presto
DR12 -5.52 dB -21.56 dB 7:11 04-Sym7 In A Major, Op.92 4. Allegro con brio
DR14 -6.71 dB -25.12 dB 9:48 05-Sym8 In F Major, Op.93 1. Allegro vivace e con brio
DR15-11.46 dB -31.35 dB 4:02 06-Sym8 In F Major, Op.93 2. Allegretto scherzando
DR14-11.04 dB -28.00 dB 4:50 07-Sym8 In F Major, Op.93 3. Tempo di menuetto
DR14 -6.05 dB -25.14 dB 7:23 08-Sym8 In F Major, Op.93 4. Allegro vivace
-------------------------------------------------------------------------------------------------
Number of tracks: 8
Official DR value: DR14
Samplerate: 2822400 Hz / PCM Samplerate: 176400 Hz
Channels: 2
Bits per sample: 1
Bitrate: 5645 kbps
Codec: DSD64
============================================================
=======================================================================
foobar2000 1.4 / Dynamic Range Meter 1.1.1
log date: 2020-03-23 21:31:41
--------------------------------------------------------------------------------------------------------------------
Analyzed: Leonard Bernstein / Beethoven: Symphony No.3 "Eroica"
--------------------------------------------------------------------------------------------------------------------
DR Peak RMS Duration Track
--------------------------------------------------------------------------------------------------------------------
DR15 -6.42 dB -27.17 dB 17:46 01-Sym3 In E Flat Major, Op.55 Eroica 1. Allegro con brio
DR15 -6.86 dB -28.37 dB 17:40 02-Sym3 In E Flat Major, Op.55 Eroica 2. Marcia funebre. Adagio assai
DR14 -6.28 dB -29.10 dB 6:12 03-Sym3 In E Flat Major, Op.55 Eroica 3. Scherzo. Allegro Vivace
DR15 -5.84 dB -26.54 dB 11:50 04-Sym3 In E Flat Major, Op.55 Eroica 4. Finale. Allegro molto
--------------------------------------------------------------------------------------------------------------------
Number of tracks: 4
Official DR value: DR15
Samplerate: 2822400 Hz / PCM Samplerate: 176400 Hz
Channels: 2
Bits per sample: 1
Bitrate: 5645 kbps
Codec: DSD64
========================================================================
==================================================================================================
foobar2000 1.4 / Dynamic Range Meter 1.1.1
log date: 2020-03-23 22:17:36
------------------------------------------------------------------------------------------------------------------------------------------------------ ---------
Analyzed: Leonard Bernstein / Beethoven: Symphony No.6 "Pastoral"
------------------------------------------------------------------------------------------------------------------------------------------------------ ---------
DR Peak RMS Duration Track
------------------------------------------------------------------------------------------------------------------------------------------------------ ---------
DR13 -9.65 dB -27.73 dB 11:50 01-Sym6 In F Major, Op.68 Pastral 1. Erwachen heite
DR14 -12.45 dB -30.85 dB 13:34 02-Sym6 In F Major, Op.68 Pastral 2. Szene am Bach: Andante molto mosso
DR13 -7.57 dB -25.94 dB 5:26 03-Sym6 In F Major, Op.68 Pastral 3. Lustiges Zusammensein der Landleute: Allegro
DR11 -5.38 dB -21.36 dB 3:43 04-Sym6 In F Major, Op.68 Pastral 4. Gewitter - Sturm: Allegro
DR13 -6.74 dB -25.08 dB 10:17 05-Sym6 In F Major, Op.68 Pastral 5. Hirtengesang. Frohe und dankbare Gefuhle nach dem Sturm: Allegretto
------------------------------------------------------------------------------------------------------------------------------------------------------ ---------
Number of tracks: 5
Official DR value: DR13
Samplerate: 2822400 Hz / PCM Samplerate: 176400 Hz
Channels: 2
Bits per sample: 1
Bitrate: 5645 kbps
Codec: DSD64
==================================================================================================
======================================================================================
foobar2000 1.4 / Dynamic Range Meter 1.1.1
log date: 2020-03-23 22:39:49
--------------------------------------------------------------------------------------------------------------------------------------------
Analyzed: Leonard Bernstein / Beethoven: Symphony No.9 "Choral"
--------------------------------------------------------------------------------------------------------------------------------------------
DR Peak RMS Duration Track
--------------------------------------------------------------------------------------------------------------------------------------------
DR13 -5.56 dB -23.41 dB 15:27 01-Sym9 In D Minor, Op.125 Choral 1. Allegro ma non troppo, un poco maestoso
DR14 -5.89 dB -25.74 dB 11:24 02-Sym9 In D Minor, Op.125 Choral 2. Molto vivace
DR18 -7.09 dB -30.39 dB 17:49 03-Sym9 In D Minor, Op.125 Choral 3. Adagio molto e cantabile
DR13 -6.90 dB -26.42 dB 7:55 04-Sym9 In D Minor, Op.125 Choral 4. Presto -
DR11 -5.37 dB -21.42 dB 18:37 05-Sym9 In D Minor, Op.125 Choral 4. Presto- "O Freunde, nicht diese Tone!" - Allegro assai
---------------------------------------------------------------------------------------------------------------------------------------------
Number of tracks: 5
Official DR value: DR14
Samplerate: 2822400 Hz / PCM Samplerate: 176400 Hz
Channels: 2
Bits per sample: 1
Bitrate: 5645 kbps
Codec: DSD64
=======================================================================================
Категория Музыка / Мультимедиа RSS лента
Добавлен (2 дня назад)
Просмотров 0 раз (a)
Взят 0 раз (a)
Файлы 0, 0.00 kB (0 байт)
Раздал ViKa  (Искать торренты)
Участники
Завершено: 0 (0)
Просматривают

« Pink Floyd - 100% Pink Floyd (2020) 2CD [MP3|320 Kbps] -†- ¿? -†- pod metro - pod metro - 2019-2020, MP3, 128 kbps »

:: Список Комментариев
Нет комментариев.

 Нет комментариев
Самые активные релизы за неделю
Музыка / Мультимедиа
Fataland - Выпей Вина! (2020) [MP3|320 Kbps]
  • Fataland - Выпей Вина! (2020) [MP3|320 Kbps]
  • Joy - 4 Albums (1986-2011) Collection 2LP+2CD [MP3|320 Kbps]
  • Земля Легенд - 2 Albums: Начала Зимы, Стеклянный Утес (2016-2020) [MP3|V2-320 Kbps]
  • Хиты 80-90 годов (Vol.01-35) ( Поп / 2019 )
  • Tom Morello - The Atlas Underground (2018) [FLAC|Lossless|tracks + .cue]
  • Styx - Greatest Hits (1995) MP3
  • Pink Floyd - 100% Pink Floyd (2020) 2CD [MP3|320 Kbps]
  • Турбомода - Затурбись! (2001) [MP3|320 Kbps]
  • Фейнберг / Feinberg - Complete Piano Sonatas [Samaltanos, Sirodeau] (2003) OGG
  • Noel Gallagher's High Flying Birds - Blue Moon Rising (2020) EP [FLAC|Lossless|WEB-DL|tracks]
  • VA - Pink Floyd Redux (2006) MP3 от Vanila
  • Пламя в нас (Рви Меха) - 3 Альбома: Речка, Жаворонок, Времена (2016-2020) [MP3|320 Kbps]

Счетчики
Рейтинг@Mail.ru Яндекс.Метрика Счетчик PR-CY.Rank Анализ сайта hit-muzik.ru

здесь должен быть ваш плеер
Поделится ссылкой