Привет, Гость

Войти на сайт
Регистрация
Восстановить Пароль

Наша группа в ВК

Копилка сайта

Правообладателям

Для удаления авторских файлов, пишите по адреcу: [email protected].
Чтобы ваше письмо не было проигнорировано и было обработано автоматической системой удаления авторских раздач, необходимо соблюдать правила оформления текста:
* Присылайте абсолютные адреса ссылок на торрент-раздачи (с табуляцией, с отступами)
* Ни pdf, ни doc файлы не читаются скриптом, за исключением rtf формата

Просьба это учесть при оформлении письма (ем).


Связанные раздачи
Загрузка / Обновление

:: Детали раздачи
Раздача является мультитрекерной — учтите, количество раздающих не будет совпадать с количеством участников на сайте (скачивание на клиентской стороне зависит от настроек µTorrent клиент программы, настройки -> Включить DHT, Обмен пирами и Поиск лок-х пиров).
Если висит надпись, пиры по нулям - не бойтесь, возможность скачать повторно раздачу - есть. Попробуйте, в случае отказа - прокоментируйте или нажмите на "Позвать скачавших".

Ice Age - The Great Divide (1999) [WavPack|Lossless|image + .cue]

Скачать Скачать торрент источник 1 Скачать .torrent файл (основная ссылка для скачивания файла)
Скачать торрент источник 1 Скачать архивом (основная ссылка)
Теги progressive metal, 1999
Описание
Ice Age - The Great Divide (1999) [WavPack|Lossless|image + .cue]
Ice Age - The Great Divide (1999)
Год: 1999
Жанр: Progressive Metal
Источник: CD из личной коллекции !!!CORSAR!!!
Scans: Complete (png 300 dpi) + matrix
Продолжительность: 01:14:21

Кодек: WavPack
Битрейт: Lossless

Трек лист:
01. Perpetual Child [10:29]
02. Sleepwalker [05:25]
03. Join [05:56]
04. Spare Chicken Parts [08:51]
05. Because Of You [05:33]
06. The Bottom Line [04:44]
07. Ice Age [11:08]
08. One Look Away [05:40]
09. Miles To Go [05:01]
10. To Say Goodbye Part I: Worthless Words [03:13]
11. To Say Goodbye Part Ii: On Our Way [08:17] Код: выделить все
Exact Audio Copy V1.0 beta 3 from 29. August 2011

EAC extraction logfile from 29. January 2013, 22:10

Ice Age / The Great Divide

Used drive  : PIONEER DVD-RW  DVR-118L   Adapter: 2  ID: 0

Read mode               : Secure
Utilize accurate stream : Yes
Defeat audio cache      : Yes
Make use of C2 pointers : No

Read offset correction                      : 6
Overread into Lead-In and Lead-Out          : No
Fill up missing offset samples with silence : Yes
Delete leading and trailing silent blocks   : No
Null samples used in CRC calculations       : Yes
Used interface                              : Native Win32 interface for Win NT & 2000

Used output format              : User Defined Encoder
Selected bitrate                : 1024 kBit/s
Quality                         : High
Add ID3 tag                     : No
Command line compressor         : C:\Program Files\Exact Audio Copy\wavpack.exe
Additional command line options : -hm %source% %dest%

TOC of the extracted CD

     Track |   Start  |  Length  | Start sector | End sector
    ---------------------------------------------------------
        1  |  0:00.00 | 10:29.47 |         0    |    47221
        2  | 10:29.47 |  5:25.13 |     47222    |    71609
        3  | 15:54.60 |  5:56.12 |     71610    |    98321
        4  | 21:50.72 |  8:51.18 |     98322    |   138164
        5  | 30:42.15 |  5:33.15 |    138165    |   163154
        6  | 36:15.30 |  4:45.67 |    163155    |   184596
        7  | 41:01.22 | 11:09.55 |    184597    |   234826
        8  | 52:11.02 |  5:42.10 |    234827    |   260486
        9  | 57:53.12 |  5:02.08 |    260487    |   283144
       10  | 62:55.20 |  3:13.17 |    283145    |   297636
       11  | 66:08.37 |  8:17.73 |    297637    |   334984

Range status and errors

Selected range

     Filename F:\CD\Ice Age [1999] The Great Divide\Ice Age - The Great Divide.wav

     Peak level 100.0 %
     Extraction speed 2.1 X
     Range quality 100.0 %
     Test CRC AF70C922
     Copy CRC AF70C922
     Copy OK

No errors occurred

AccurateRip summary

Track  1  cannot be verified as accurate (confidence 13)  [C8249108], AccurateRip returned [8EB00019]  (AR v2)
Track  2  cannot be verified as accurate (confidence 13)  [AA609C2A], AccurateRip returned [CFC49F5A]  (AR v2)
Track  3  cannot be verified as accurate (confidence 13)  [0C23B610], AccurateRip returned [3E276C79]  (AR v2)
Track  4  cannot be verified as accurate (confidence 13)  [1611DD25], AccurateRip returned [C1BAC62D]  (AR v2)
Track  5  cannot be verified as accurate (confidence 13)  [5AFC313F], AccurateRip returned [1B8040AF]  (AR v2)
Track  6  cannot be verified as accurate (confidence 13)  [0BB3944A], AccurateRip returned [943D8C2B]  (AR v2)
Track  7  cannot be verified as accurate (confidence 12)  [B688E527], AccurateRip returned [B8A0EBC4]  (AR v2)
Track  8  cannot be verified as accurate (confidence 13)  [842AA7A7], AccurateRip returned [5CB52500]  (AR v2)
Track  9  cannot be verified as accurate (confidence 13)  [9E3DE334], AccurateRip returned [B3C41012]  (AR v2)
Track 10  cannot be verified as accurate (confidence 12)  [7E3C440D], AccurateRip returned [3B63004A]  (AR v2)
Track 11  cannot be verified as accurate (confidence 12)  [E4610052], AccurateRip returned [F52463DD]  (AR v2)

No tracks could be verified as accurate
You may have a different pressing from the one(s) in the

End of status report

---- CUETools DB Plugin V2.1.3

[CTDB TOCID: sUWpQePXt_o5SLsJ7qcHuaRmhzk-] found, Submit result: sUWpQePXt_o5SLsJ7qcHuaRmhzk- has been confirmed
[b4a6c6bb] (17/19) Accurately ripped
[11b38d94] (01/19) No match
[19a3dc3c] (01/19) No match

==== Log checksum 58E6E7050C258BEEFC991BB83A57352410E43C86604112B31AC2614F2B27D637 ====
Категория Музыка / Мультимедиа RSS лента
Добавлен (7 месяцев назад)
Просмотров 7 раз (a)
Взят 3 раз (a)
Файлы 11, 550.46 MB (577 201 875 байт)
Раздал ViKa  (Искать торренты)
Участники
Завершено: 0 (0)
Просматривают

« Meghan Trainor - Treat Myself (2020) Target Exclusive [FLAC|Lossless|tracks + .cue] -†- ¿? -†- Sawano Hiroyuki [nZk] - Лучшие вокальные работы [nZk] 2 | BEST OF VOCAL WORKS [nZk] 2 [MP3|320 Kbps] »

:: Список Комментариев
Нет комментариев.

 Нет комментариев
Самые активные релизы за неделю
Нет релизов к показу

Счетчики
Яндекс.Метрика Анализ сайта hit-muzik.ru

Поделится ссылкой