Привет, Гость

Войти на сайт
Регистрация
Восстановить Пароль

Наша группа в ВК

Копилка сайта

Правообладателям

Для удаления авторских файлов, пишите по адреcу: [email protected].
Чтобы ваше письмо не было проигнорировано и было обработано автоматической системой удаления авторских раздач, необходимо соблюдать правила оформления текста:
* Присылайте абсолютные адреса ссылок на торрент-раздачи (с табуляцией, с отступами)
* Ни pdf, ни doc файлы не читаются скриптом, за исключением rtf формата

Просьба это учесть при оформлении письма (ем).


Связанные раздачи
Загрузка / Обновление

:: Детали раздачи
Раздача является мультитрекерной — учтите, количество раздающих не будет совпадать с количеством участников на сайте (скачивание на клиентской стороне зависит от настроек µTorrent клиент программы, настройки -> Включить DHT, Обмен пирами и Поиск лок-х пиров).
Если висит надпись, пиры по нулям - не бойтесь, возможность скачать повторно раздачу - есть. Попробуйте, в случае отказа - прокоментируйте или нажмите на "Позвать скачавших".

Rush - A Farewell To Kings (40th Anniversary Deluxe Edition) - 2017 (Rock, Prog Rock)

Скачать Скачать торрент источник 1 Скачать .torrent файл (основная ссылка для скачивания файла)
Скачать торрент источник 1 Скачать архивом (основная ссылка)
Теги rock, prog rock, 2017
Описание
Rush - A Farewell To Kings (40th Anniversary Deluxe Edition) - 2017 (Rock, Prog Rock)
Rush / A Farewell To Kings (40th Anniversary Deluxe Edition)
Формат записи/Источник записи:
[OF]
Наличие водяных знаков: Нет
Год издания/переиздания диска: 2017
Жанр: Rock, Prog Rock
Продолжительность: 01:09:16
Наличие сканов в содержимом раздачи: Да (сканы)
Источник (релизер): ALLexxess
Контейнер: BDMV
Тип рипа: folder
Разрядность: 24/96
Формат: LPCM, DTS-HD MA, Dolby True-HD
Количество каналов: 2.0/5.1
Треклист:
1. A Farewell To Kings
2. Xanadu
3. Closer To The Heart
4. Cinderella Man
5. Madrigal
6. Cygnus X-1
1977 Promo Videos
7. A Farewell To Kings
8. Xanadu
9. Closer To The Heart

BDInfo


Код:

DISC INFO:
Disc Title:     Rush - A Farewell To Kings
Disc Size:      13,286,242,304 bytes
Protection:     AACS(v63)
BD-Java:        Yes
BDInfo:         0.5.8.1 (compatible layout d by DVDFab 9.3.1.2)
PLAYLIST REPORT:
Name:                   01001.MPLS
Length:                 0:37:55.940 (h:m:s.ms)
Size:                   8,028,917,760 bytes
Total Bitrate:          28.22 Mbps
VIDEO:
Codec                   Bitrate             Description
-----                   -------             -----------
MPEG-4 AVC Video        7974 kbps           1080p / 23.976 fps / 16:9 / High Profile 4.1
AUDIO:
Codec                           Language        Bitrate         Description
-----                           --------        -------         -----------
LPCM Audio                      English         4608 kbps       2.0 / 96 kHz / 4608 kbps / 24-bit
DTS-HD Master Audio             English         6498 kbps       5.1 / 96 kHz / 6498 kbps / 24-bit (DTS Core: 5.1 / 48 kHz / 1509 kbps / 24-bit)
Dolby TrueHD Audio              English         6410 kbps       5.1 / 96 kHz / 6410 kbps / 24-bit (AC3 Core: 5.1 / 48 kHz / 640 kbps)
FILES:
Name            Time In         Length          Size            Total Bitrate
----            -------         ------          ----            -------------
00002.M2TS      0:00:00.000     0:37:55.940     8,028,917,760   28,221 kbps
CHAPTERS:
Number          Time In         Length          Avg Video Rate  Max 1-Sec Rate  Max 1-Sec Time  Max 5-Sec Rate  Max 5-Sec Time  Max 10Sec Rate  Max 10Sec Time  Avg Frame Size  Max Frame Size  Max Frame Time
------          -------         ------          --------------  --------------  --------------  --------------  --------------  --------------  --------------  --------------  --------------  --------------
1               0:00:00.000     0:05:58.524     7,929 kbps      13,184 kbps     0:00:03.002     9,797 kbps      0:04:32.981     9,273 kbps      0:04:27.850     41,336 bytes    305,459 bytes   0:00:56.890
2               0:05:58.524     0:11:27.436     9,317 kbps      13,502 kbps     0:14:51.390     11,098 kbps     0:06:58.334     10,684 kbps     0:06:53.329     48,571 bytes    262,050 bytes   0:14:04.468
3               0:17:25.961     0:02:56.801     7,162 kbps      11,327 kbps     0:18:34.780     9,533 kbps      0:18:33.487     9,093 kbps      0:18:26.271     37,342 bytes    92,613 bytes    0:19:53.358
4               0:20:22.763     0:04:23.012     8,115 kbps      12,298 kbps     0:21:16.275     10,023 kbps     0:21:13.146     9,444 kbps      0:20:24.056     42,311 bytes    354,491 bytes   0:20:24.056
5               0:24:45.775     0:02:37.782     7,193 kbps      11,821 kbps     0:27:16.593     9,099 kbps      0:26:37.554     8,137 kbps      0:26:32.591     37,515 bytes    295,509 bytes   0:27:13.715
6               0:27:23.558     0:10:32.381     6,900 kbps      11,706 kbps     0:29:46.743     9,067 kbps      0:37:06.349     7,991 kbps      0:29:38.359     35,973 bytes    262,649 bytes   0:32:34.661
STREAM DIAGNOSTICS:
File            PID             Type            Codec           Language                Seconds                 Bitrate                 Bytes           Packets
----            ---             ----            -----           --------                --------------          --------------          -------------   -----
00002.M2TS      4113 (0x1011)   0x1B            AVC                                     2275.82                 7973.84                 2,268,372,137   12,360,082
00002.M2TS      6912 (0x1B00)   0x1B            AVC                                     2275.77                 20.185                  5,742,075       57,049
00002.M2TS      4352 (0x1100)   0x80            LPCM            eng (English)           2275.90                 4608                    1,312,742,004   7,282,896
00002.M2TS      4353 (0x1101)   0x86            DTS-HD MA       eng (English)           2275.91                 6498.15                 1,848,654,004   10,402,130
00002.M2TS      4354 (0x1102)   0x83            TrueHD          eng (English)           2275.87                 6410.43                 1,823,664,500   11,613,469



QUICK SUMMARY:
Disc Title: Rush - A Farewell To Kings
Disc Size: 13,286,242,304 bytes
Protection: AACS(v63)
BD-Java: Yes
Playlist: 01001.MPLS
Size: 8,028,917,760 bytes
Length: 0:37:55.940
Total Bitrate: 28.22 Mbps
Video: MPEG-4 AVC Video / 7974 kbps / 1080p / 23.976 fps / 16:9 / High Profile 4.1
Audio: English / LPCM Audio / 2.0 / 96 kHz / 4608 kbps / 24-bit
Audio: English / DTS-HD Master Audio / 5.1 / 96 kHz / 6498 kbps / 24-bit (DTS Core: 5.1 / 48 kHz / 1509 kbps / 24-bit)
Audio: English / Dolby TrueHD Audio / 5.1 / 96 kHz / 6410 kbps / 24-bit (AC3 Core: 5.1 / 48 kHz / 640 kbps)
********************
PLAYLIST: 00002.MPLS
********************


Код:

                                                                                Total   Video
Title                                                           Codec   Length   Movie Size      Disc Size       Bitrate Bitrate Main Audio Track                          Secondary Audio Track
-----                                                           ------  -------  --------------  --------------  ------- ------- ------------------                        ---------------------
00002.MPLS                                                      AVC     0:37:55  8,028,917,760   13,286,242,304  28.22   7.97    LPCM 2.0                                  DTS-HD Master 5.1DTS-HD Master 5.1


Код:

DISC INFO:
Disc Title:     Rush - A Farewell To Kings
Disc Size:      13,286,242,304 bytes
Protection:     AACS(v63)
BD-Java:        Yes
BDInfo:         0.5.8.1 (compatible layout d by DVDFab 9.3.1.2)
PLAYLIST REPORT:
Name:                   00002.MPLS
Length:                 0:37:55.940 (h:m:s.ms)
Size:                   8,028,917,760 bytes
Total Bitrate:          28.22 Mbps
VIDEO:
Codec                   Bitrate             Description
-----                   -------             -----------
MPEG-4 AVC Video        7974 kbps           1080p / 23.976 fps / 16:9 / High Profile 4.1
AUDIO:
Codec                           Language        Bitrate         Description
-----                           --------        -------         -----------
LPCM Audio                      English         4608 kbps       2.0 / 96 kHz / 4608 kbps / 24-bit
DTS-HD Master Audio             English         6498 kbps       5.1 / 96 kHz / 6498 kbps / 24-bit (DTS Core: 5.1 / 48 kHz / 1509 kbps / 24-bit)
Dolby TrueHD Audio              English         6410 kbps       5.1 / 96 kHz / 6410 kbps / 24-bit (AC3 Core: 5.1 / 48 kHz / 640 kbps)
FILES:
Name            Time In         Length          Size            Total Bitrate
----            -------         ------          ----            -------------
00002.M2TS      0:00:00.000     0:37:55.940     8,028,917,760   28,221 kbps
CHAPTERS:
Number          Time In         Length          Avg Video Rate  Max 1-Sec Rate  Max 1-Sec Time  Max 5-Sec Rate  Max 5-Sec Time  Max 10Sec Rate  Max 10Sec Time  Avg Frame Size  Max Frame Size  Max Frame Time
------          -------         ------          --------------  --------------  --------------  --------------  --------------  --------------  --------------  --------------  --------------  --------------
1               0:00:00.000     0:37:55.940     7,973 kbps      13,250 kbps     0:14:51.390     11,063 kbps     0:06:58.209     10,675 kbps     0:06:53.204     41,569 bytes    354,491 bytes   0:20:24.056
STREAM DIAGNOSTICS:
File            PID             Type            Codec           Language                Seconds                 Bitrate                 Bytes           Packets
----            ---             ----            -----           --------                --------------          --------------          -------------   -----
00002.M2TS      4113 (0x1011)   0x1B            AVC                                     2275.82                 7973.84                 2,268,372,137   12,360,082
00002.M2TS      6912 (0x1B00)   0x1B            AVC                                     2275.77                 20.185                  5,742,075       57,049
00002.M2TS      4352 (0x1100)   0x80            LPCM            eng (English)           2275.90                 4608                    1,312,742,004   7,282,896
00002.M2TS      4353 (0x1101)   0x86            DTS-HD MA       eng (English)           2275.91                 6498.15                 1,848,654,004   10,402,130
00002.M2TS      4354 (0x1102)   0x83            TrueHD          eng (English)           2275.87                 6410.43                 1,823,664,500   11,613,469



QUICK SUMMARY:
Disc Title: Rush - A Farewell To Kings
Disc Size: 13,286,242,304 bytes
Protection: AACS(v63)
BD-Java: Yes
Playlist: 00002.MPLS
Size: 8,028,917,760 bytes
Length: 0:37:55.940
Total Bitrate: 28.22 Mbps
Video: MPEG-4 AVC Video / 7974 kbps / 1080p / 23.976 fps / 16:9 / High Profile 4.1
Audio: English / LPCM Audio / 2.0 / 96 kHz / 4608 kbps / 24-bit
Audio: English / DTS-HD Master Audio / 5.1 / 96 kHz / 6498 kbps / 24-bit (DTS Core: 5.1 / 48 kHz / 1509 kbps / 24-bit)
Audio: English / Dolby TrueHD Audio / 5.1 / 96 kHz / 6410 kbps / 24-bit (AC3 Core: 5.1 / 48 kHz / 640 kbps)
********************
PLAYLIST: 00005.MPLS
********************


Код:

                                                                                Total   Video
Title                                                           Codec   Length   Movie Size      Disc Size       Bitrate Bitrate Main Audio Track                          Secondary Audio Track
-----                                                           ------  -------  --------------  --------------  ------- ------- ------------------                        ---------------------
00005.MPLS                                                      AVC     0:11:25  1,828,915,200   13,286,242,304  21.34   5.96    DTS-HD Master 5.1                         Dolby TrueHD 5.1


Код:

DISC INFO:
Disc Title:     Rush - A Farewell To Kings
Disc Size:      13,286,242,304 bytes
Protection:     AACS(v63)
BD-Java:        Yes
BDInfo:         0.5.8.1 (compatible layout d by DVDFab 9.3.1.2)
PLAYLIST REPORT:
Name:                   00005.MPLS
Length:                 0:11:25.651 (h:m:s.ms)
Size:                   1,828,915,200 bytes
Total Bitrate:          21.34 Mbps
VIDEO:
Codec                   Bitrate             Description
-----                   -------             -----------
MPEG-4 AVC Video        5959 kbps           480i / 29.970 fps / 16:9 / High Profile 4.1
AUDIO:
Codec                           Language        Bitrate         Description
-----                           --------        -------         -----------
DTS-HD Master Audio             English         6559 kbps       5.1 / 96 kHz / 6559 kbps / 24-bit (DTS Core: 5.1 / 48 kHz / 1509 kbps / 24-bit)
Dolby TrueHD Audio              English         6469 kbps       5.1 / 96 kHz / 6469 kbps / 16-bit (AC3 Core: 5.1 / 48 kHz / 640 kbps)
FILES:
Name            Time In         Length          Size            Total Bitrate
----            -------         ------          ----            -------------
00005.M2TS      0:00:00.000     0:11:25.651     1,828,915,200   21,339 kbps
CHAPTERS:
Number          Time In         Length          Avg Video Rate  Max 1-Sec Rate  Max 1-Sec Time  Max 5-Sec Rate  Max 5-Sec Time  Max 10Sec Rate  Max 10Sec Time  Avg Frame Size  Max Frame Size  Max Frame Time
------          -------         ------          --------------  --------------  --------------  --------------  --------------  --------------  --------------  --------------  --------------  --------------
1               0:00:00.000     0:11:25.651     5,958 kbps      8,390 kbps      0:11:01.360     7,529 kbps      0:01:36.830     7,122 kbps      0:01:36.729     24,851 bytes    57,581 bytes    0:00:02.135
STREAM DIAGNOSTICS:
File            PID             Type            Codec           Language                Seconds                 Bitrate                 Bytes           Packets
----            ---             ----            -----           --------                --------------          --------------          -------------   -----
00005.M2TS      4113 (0x1011)   0x1B            AVC                                     685.55                  5959.24                 510,670,466     2,787,587
00005.M2TS      4352 (0x1100)   0x86            DTS-HD MA       eng (English)           685.63                  6558.99                 562,131,532     3,161,945
00005.M2TS      4353 (0x1101)   0x83            TrueHD          eng (English)           685.60                  6468.52                 554,351,112     3,545,587



QUICK SUMMARY:
Disc Title: Rush - A Farewell To Kings
Disc Size: 13,286,242,304 bytes
Protection: AACS(v63)
BD-Java: Yes
Playlist: 00005.MPLS
Size: 1,828,915,200 bytes
Length: 0:11:25.651
Total Bitrate: 21.34 Mbps
Video: MPEG-4 AVC Video / 5959 kbps / 480i / 29.970 fps / 16:9 / High Profile 4.1
Audio: English / DTS-HD Master Audio / 5.1 / 96 kHz / 6559 kbps / 24-bit (DTS Core: 5.1 / 48 kHz / 1509 kbps / 24-bit)
Audio: English / Dolby TrueHD Audio / 5.1 / 96 kHz / 6469 kbps / 16-bit (AC3 Core: 5.1 / 48 kHz / 640 kbps)
********************
PLAYLIST: 01004.MPLS
********************


Код:

                                                                                Total   Video
Title                                                           Codec   Length   Movie Size      Disc Size       Bitrate Bitrate Main Audio Track                          Secondary Audio Track
-----                                                           ------  -------  --------------  --------------  ------- ------- ------------------                        ---------------------
01004.MPLS                                                      AVC     0:11:25  1,828,915,200   13,286,242,304  21.34   5.96    DTS-HD Master 5.1                         Dolby TrueHD 5.1


Код:

DISC INFO:
Disc Title:     Rush - A Farewell To Kings
Disc Size:      13,286,242,304 bytes
Protection:     AACS(v63)
BD-Java:        Yes
BDInfo:         0.5.8.1 (compatible layout d by DVDFab 9.3.1.2)
PLAYLIST REPORT:
Name:                   01004.MPLS
Length:                 0:11:25.651 (h:m:s.ms)
Size:                   1,828,915,200 bytes
Total Bitrate:          21.34 Mbps
VIDEO:
Codec                   Bitrate             Description
-----                   -------             -----------
MPEG-4 AVC Video        5959 kbps           480i / 29.970 fps / 16:9 / High Profile 4.1
AUDIO:
Codec                           Language        Bitrate         Description
-----                           --------        -------         -----------
DTS-HD Master Audio             English         6559 kbps       5.1 / 96 kHz / 6559 kbps / 24-bit (DTS Core: 5.1 / 48 kHz / 1509 kbps / 24-bit)
Dolby TrueHD Audio              English         6469 kbps       5.1 / 96 kHz / 6469 kbps / 16-bit (AC3 Core: 5.1 / 48 kHz / 640 kbps)
FILES:
Name            Time In         Length          Size            Total Bitrate
----            -------         ------          ----            -------------
00005.M2TS      0:00:00.000     0:11:25.651     1,828,915,200   21,339 kbps
CHAPTERS:
Number          Time In         Length          Avg Video Rate  Max 1-Sec Rate  Max 1-Sec Time  Max 5-Sec Rate  Max 5-Sec Time  Max 10Sec Rate  Max 10Sec Time  Avg Frame Size  Max Frame Size  Max Frame Time
------          -------         ------          --------------  --------------  --------------  --------------  --------------  --------------  --------------  --------------  --------------  --------------
1               0:00:00.000     0:11:25.651     5,958 kbps      8,390 kbps      0:11:01.360     7,529 kbps      0:01:36.830     7,122 kbps      0:01:36.729     24,851 bytes    57,581 bytes    0:00:02.135
STREAM DIAGNOSTICS:
File            PID             Type            Codec           Language                Seconds                 Bitrate                 Bytes           Packets
----            ---             ----            -----           --------                --------------          --------------          -------------   -----
00005.M2TS      4113 (0x1011)   0x1B            AVC                                     685.55                  5959.24                 510,670,466     2,787,587
00005.M2TS      4352 (0x1100)   0x86            DTS-HD MA       eng (English)           685.63                  6558.99                 562,131,532     3,161,945
00005.M2TS      4353 (0x1101)   0x83            TrueHD          eng (English)           685.60                  6468.52                 554,351,112     3,545,587



QUICK SUMMARY:
Disc Title: Rush - A Farewell To Kings
Disc Size: 13,286,242,304 bytes
Protection: AACS(v63)
BD-Java: Yes
Playlist: 01004.MPLS
Size: 1,828,915,200 bytes
Length: 0:11:25.651
Total Bitrate: 21.34 Mbps
Video: MPEG-4 AVC Video / 5959 kbps / 480i / 29.970 fps / 16:9 / High Profile 4.1
Audio: English / DTS-HD Master Audio / 5.1 / 96 kHz / 6559 kbps / 24-bit (DTS Core: 5.1 / 48 kHz / 1509 kbps / 24-bit)
Audio: English / Dolby TrueHD Audio / 5.1 / 96 kHz / 6469 kbps / 16-bit (AC3 Core: 5.1 / 48 kHz / 640 kbps)
********************
PLAYLIST: 00004.MPLS
********************


Код:

                                                                                Total   Video
Title                                                           Codec   Length   Movie Size      Disc Size       Bitrate Bitrate Main Audio Track                          Secondary Audio Track
-----                                                           ------  -------  --------------  --------------  ------- ------- ------------------                        ---------------------
00004.MPLS                                                      AVC     0:11:08  937,531,392     13,286,242,304  11.23   5.96    LPCM 2.0


Код:

DISC INFO:
Disc Title:     Rush - A Farewell To Kings
Disc Size:      13,286,242,304 bytes
Protection:     AACS(v63)
BD-Java:        Yes
BDInfo:         0.5.8.1 (compatible layout d by DVDFab 9.3.1.2)
PLAYLIST REPORT:
Name:                   00004.MPLS
Length:                 0:11:08.167 (h:m:s.ms)
Size:                   937,531,392 bytes
Total Bitrate:          11.23 Mbps
VIDEO:
Codec                   Bitrate             Description
-----                   -------             -----------
MPEG-4 AVC Video        5956 kbps           480i / 29.970 fps / 16:9 / High Profile 4.1
AUDIO:
Codec                           Language        Bitrate         Description
-----                           --------        -------         -----------
LPCM Audio                      English         4608 kbps       2.0 / 96 kHz / 4608 kbps / 24-bit
FILES:
Name            Time In         Length          Size            Total Bitrate
----            -------         ------          ----            -------------
00004.M2TS      0:00:00.000     0:11:08.167     937,531,392     11,225 kbps
CHAPTERS:
Number          Time In         Length          Avg Video Rate  Max 1-Sec Rate  Max 1-Sec Time  Max 5-Sec Rate  Max 5-Sec Time  Max 10Sec Rate  Max 10Sec Time  Avg Frame Size  Max Frame Size  Max Frame Time
------          -------         ------          --------------  --------------  --------------  --------------  --------------  --------------  --------------  --------------  --------------  --------------
1               0:00:00.000     0:11:08.167     5,956 kbps      8,956 kbps      0:02:30.750     7,431 kbps      0:08:13.526     7,038 kbps      0:06:41.000     24,839 bytes    50,069 bytes    0:00:02.035
STREAM DIAGNOSTICS:
File            PID             Type            Codec           Language                Seconds                 Bitrate                 Bytes           Packets
----            ---             ----            -----           --------                --------------          --------------          -------------   -----
00004.M2TS      4113 (0x1011)   0x1B            AVC                                     668.07                  5956.45                 497,413,745     2,715,221
00004.M2TS      4352 (0x1100)   0x80            LPCM            eng (English)           668.13                  4608                    385,380,268     2,138,032



QUICK SUMMARY:
Disc Title: Rush - A Farewell To Kings
Disc Size: 13,286,242,304 bytes
Protection: AACS(v63)
BD-Java: Yes
Playlist: 00004.MPLS
Size: 937,531,392 bytes
Length: 0:11:08.167
Total Bitrate: 11.23 Mbps
Video: MPEG-4 AVC Video / 5956 kbps / 480i / 29.970 fps / 16:9 / High Profile 4.1
Audio: English / LPCM Audio / 2.0 / 96 kHz / 4608 kbps / 24-bit
********************
PLAYLIST: 01003.MPLS
********************


Код:

                                                                                Total   Video
Title                                                           Codec   Length   Movie Size      Disc Size       Bitrate Bitrate Main Audio Track                          Secondary Audio Track
-----                                                           ------  -------  --------------  --------------  ------- ------- ------------------                        ---------------------
01003.MPLS                                                      AVC     0:11:08  937,531,392     13,286,242,304  11.23   5.96    LPCM 2.0


Код:

DISC INFO:
Disc Title:     Rush - A Farewell To Kings
Disc Size:      13,286,242,304 bytes
Protection:     AACS(v63)
BD-Java:        Yes
BDInfo:         0.5.8.1 (compatible layout d by DVDFab 9.3.1.2)
PLAYLIST REPORT:
Name:                   01003.MPLS
Length:                 0:11:08.167 (h:m:s.ms)
Size:                   937,531,392 bytes
Total Bitrate:          11.23 Mbps
VIDEO:
Codec                   Bitrate             Description
-----                   -------             -----------
MPEG-4 AVC Video        5956 kbps           480i / 29.970 fps / 16:9 / High Profile 4.1
AUDIO:
Codec                           Language        Bitrate         Description
-----                           --------        -------         -----------
LPCM Audio                      English         4608 kbps       2.0 / 96 kHz / 4608 kbps / 24-bit
FILES:
Name            Time In         Length          Size            Total Bitrate
----            -------         ------          ----            -------------
00004.M2TS      0:00:00.000     0:11:08.167     937,531,392     11,225 kbps
CHAPTERS:
Number          Time In         Length          Avg Video Rate  Max 1-Sec Rate  Max 1-Sec Time  Max 5-Sec Rate  Max 5-Sec Time  Max 10Sec Rate  Max 10Sec Time  Avg Frame Size  Max Frame Size  Max Frame Time
------          -------         ------          --------------  --------------  --------------  --------------  --------------  --------------  --------------  --------------  --------------  --------------
1               0:00:00.000     0:11:08.167     5,956 kbps      8,956 kbps      0:02:30.750     7,431 kbps      0:08:13.526     7,038 kbps      0:06:41.000     24,839 bytes    50,069 bytes    0:00:02.035
STREAM DIAGNOSTICS:
File            PID             Type            Codec           Language                Seconds                 Bitrate                 Bytes           Packets
----            ---             ----            -----           --------                --------------          --------------          -------------   -----
00004.M2TS      4113 (0x1011)   0x1B            AVC                                     668.07                  5956.45                 497,413,745     2,715,221
00004.M2TS      4352 (0x1100)   0x80            LPCM            eng (English)           668.13                  4608                    385,380,268     2,138,032



QUICK SUMMARY:
Disc Title: Rush - A Farewell To Kings
Disc Size: 13,286,242,304 bytes
Protection: AACS(v63)
BD-Java: Yes
Playlist: 01003.MPLS
Size: 937,531,392 bytes
Length: 0:11:08.167
Total Bitrate: 11.23 Mbps
Video: MPEG-4 AVC Video / 5956 kbps / 480i / 29.970 fps / 16:9 / High Profile 4.1
Audio: English / LPCM Audio / 2.0 / 96 kHz / 4608 kbps / 24-bit
********************
PLAYLIST: 00003.MPLS
********************


Код:

                                                                                Total   Video
Title                                                           Codec   Length   Movie Size      Disc Size       Bitrate Bitrate Main Audio Track                          Secondary Audio Track
-----                                                           ------  -------  --------------  --------------  ------- ------- ------------------                        ---------------------
00003.MPLS                                                      AVC     0:05:53  1,203,326,976   13,286,242,304  27.21   5.96    LPCM 2.0                                  DTS-HD Master 5.1DTS-HD Master 5.1


Код:

DISC INFO:
Disc Title:     Rush - A Farewell To Kings
Disc Size:      13,286,242,304 bytes
Protection:     AACS(v63)
BD-Java:        Yes
BDInfo:         0.5.8.1 (compatible layout d by DVDFab 9.3.1.2)
PLAYLIST REPORT:
Name:                   00003.MPLS
Length:                 0:05:53.786 (h:m:s.ms)
Size:                   1,203,326,976 bytes
Total Bitrate:          27.21 Mbps
VIDEO:
Codec                   Bitrate             Description
-----                   -------             -----------
MPEG-4 AVC Video        5956 kbps           480i / 29.970 fps / 16:9 / High Profile 4.1
AUDIO:
Codec                           Language        Bitrate         Description
-----                           --------        -------         -----------
LPCM Audio                      English         4608 kbps       2.0 / 96 kHz / 4608 kbps / 24-bit
DTS-HD Master Audio             English         6933 kbps       5.1 / 96 kHz / 6933 kbps / 24-bit (DTS Core: 5.1 / 48 kHz / 1509 kbps / 24-bit)
Dolby TrueHD Audio              English         7010 kbps       5.1 / 96 kHz / 7010 kbps / 16-bit (AC3 Core: 5.1 / 48 kHz / 640 kbps)
FILES:
Name            Time In         Length          Size            Total Bitrate
----            -------         ------          ----            -------------
00003.M2TS      0:00:00.000     0:05:53.786     1,203,326,976   27,210 kbps
CHAPTERS:
Number          Time In         Length          Avg Video Rate  Max 1-Sec Rate  Max 1-Sec Time  Max 5-Sec Rate  Max 5-Sec Time  Max 10Sec Rate  Max 10Sec Time  Avg Frame Size  Max Frame Size  Max Frame Time
------          -------         ------          --------------  --------------  --------------  --------------  --------------  --------------  --------------  --------------  --------------  --------------
1               0:00:00.000     0:05:53.786     5,955 kbps      11,044 kbps     0:05:19.285     8,837 kbps      0:00:02.902     7,922 kbps      0:00:02.902     24,832 bytes    91,909 bytes    0:00:03.103
STREAM DIAGNOSTICS:
File            PID             Type            Codec           Language                Seconds                 Bitrate                 Bytes           Packets
----            ---             ----            -----           --------                --------------          --------------          -------------   -----
00003.M2TS      4113 (0x1011)   0x1B            AVC                                     353.69                  5955.64                 263,303,616     1,437,322
00003.M2TS      4352 (0x1100)   0x80            LPCM            eng (English)           353.75                  4608                    204,045,884     1,132,016
00003.M2TS      4353 (0x1101)   0x86            DTS-HD MA       eng (English)           353.77                  6932.82                 306,578,616     1,721,383
00003.M2TS      4354 (0x1102)   0x83            TrueHD          eng (English)           353.73                  7009.75                 309,942,074     1,960,841



QUICK SUMMARY:
Disc Title: Rush - A Farewell To Kings
Disc Size: 13,286,242,304 bytes
Protection: AACS(v63)
BD-Java: Yes
Playlist: 00003.MPLS
Size: 1,203,326,976 bytes
Length: 0:05:53.786
Total Bitrate: 27.21 Mbps
Video: MPEG-4 AVC Video / 5956 kbps / 480i / 29.970 fps / 16:9 / High Profile 4.1
Audio: English / LPCM Audio / 2.0 / 96 kHz / 4608 kbps / 24-bit
Audio: English / DTS-HD Master Audio / 5.1 / 96 kHz / 6933 kbps / 24-bit (DTS Core: 5.1 / 48 kHz / 1509 kbps / 24-bit)
Audio: English / Dolby TrueHD Audio / 5.1 / 96 kHz / 7010 kbps / 16-bit (AC3 Core: 5.1 / 48 kHz / 640 kbps)
********************
PLAYLIST: 01002.MPLS
********************


Код:

                                                                                Total   Video
Title                                                           Codec   Length   Movie Size      Disc Size       Bitrate Bitrate Main Audio Track                          Secondary Audio Track
-----                                                           ------  -------  --------------  --------------  ------- ------- ------------------                        ---------------------
01002.MPLS                                                      AVC     0:05:53  1,203,326,976   13,286,242,304  27.21   5.96    LPCM 2.0                                  DTS-HD Master 5.1DTS-HD Master 5.1


Код:

DISC INFO:
Disc Title:     Rush - A Farewell To Kings
Disc Size:      13,286,242,304 bytes
Protection:     AACS(v63)
BD-Java:        Yes
BDInfo:         0.5.8.1 (compatible layout d by DVDFab 9.3.1.2)
PLAYLIST REPORT:
Name:                   01002.MPLS
Length:                 0:05:53.786 (h:m:s.ms)
Size:                   1,203,326,976 bytes
Total Bitrate:          27.21 Mbps
VIDEO:
Codec                   Bitrate             Description
-----                   -------             -----------
MPEG-4 AVC Video        5956 kbps           480i / 29.970 fps / 16:9 / High Profile 4.1
AUDIO:
Codec                           Language        Bitrate         Description
-----                           --------        -------         -----------
LPCM Audio                      English         4608 kbps       2.0 / 96 kHz / 4608 kbps / 24-bit
DTS-HD Master Audio             English         6933 kbps       5.1 / 96 kHz / 6933 kbps / 24-bit (DTS Core: 5.1 / 48 kHz / 1509 kbps / 24-bit)
Dolby TrueHD Audio              English         7010 kbps       5.1 / 96 kHz / 7010 kbps / 16-bit (AC3 Core: 5.1 / 48 kHz / 640 kbps)
FILES:
Name            Time In         Length          Size            Total Bitrate
----            -------         ------          ----            -------------
00003.M2TS      0:00:00.000     0:05:53.786     1,203,326,976   27,210 kbps
CHAPTERS:
Number          Time In         Length          Avg Video Rate  Max 1-Sec Rate  Max 1-Sec Time  Max 5-Sec Rate  Max 5-Sec Time  Max 10Sec Rate  Max 10Sec Time  Avg Frame Size  Max Frame Size  Max Frame Time
------          -------         ------          --------------  --------------  --------------  --------------  --------------  --------------  --------------  --------------  --------------  --------------
1               0:00:00.000     0:05:53.786     5,955 kbps      11,044 kbps     0:05:19.285     8,837 kbps      0:00:02.902     7,922 kbps      0:00:02.902     24,832 bytes    91,909 bytes    0:00:03.103
STREAM DIAGNOSTICS:
File            PID             Type            Codec           Language                Seconds                 Bitrate                 Bytes           Packets
----            ---             ----            -----           --------                --------------          --------------          -------------   -----
00003.M2TS      4113 (0x1011)   0x1B            AVC                                     353.69                  5955.64                 263,303,616     1,437,322
00003.M2TS      4352 (0x1100)   0x80            LPCM            eng (English)           353.75                  4608                    204,045,884     1,132,016
00003.M2TS      4353 (0x1101)   0x86            DTS-HD MA       eng (English)           353.77                  6932.82                 306,578,616     1,721,383
00003.M2TS      4354 (0x1102)   0x83            TrueHD          eng (English)           353.73                  7009.75                 309,942,074     1,960,841



QUICK SUMMARY:
Disc Title: Rush - A Farewell To Kings
Disc Size: 13,286,242,304 bytes
Protection: AACS(v63)
BD-Java: Yes
Playlist: 01002.MPLS
Size: 1,203,326,976 bytes
Length: 0:05:53.786
Total Bitrate: 27.21 Mbps
Video: MPEG-4 AVC Video / 5956 kbps / 480i / 29.970 fps / 16:9 / High Profile 4.1
Audio: English / LPCM Audio / 2.0 / 96 kHz / 4608 kbps / 24-bit
Audio: English / DTS-HD Master Audio / 5.1 / 96 kHz / 6933 kbps / 24-bit (DTS Core: 5.1 / 48 kHz / 1509 kbps / 24-bit)
Audio: English / Dolby TrueHD Audio / 5.1 / 96 kHz / 7010 kbps / 16-bit (AC3 Core: 5.1 / 48 kHz / 640 kbps)
********************
PLAYLIST: 00001.MPLS
********************


Код:

                                                                                Total   Video
Title                                                           Codec   Length   Movie Size      Disc Size       Bitrate Bitrate Main Audio Track                          Secondary Audio Track
-----                                                           ------  -------  --------------  --------------  ------- ------- ------------------                        ---------------------
00001.MPLS                                                      AVC     0:04:09  700,323,840     13,286,242,304  22.41   5.38    LPCM 2.0                                  DTS-HD Master 5.1DTS-HD Master 5.1


Код:

DISC INFO:
Disc Title:     Rush - A Farewell To Kings
Disc Size:      13,286,242,304 bytes
Protection:     AACS(v63)
BD-Java:        Yes
BDInfo:         0.5.8.1 (compatible layout d by DVDFab 9.3.1.2)
PLAYLIST REPORT:
Name:                   00001.MPLS
Length:                 0:04:09.999 (h:m:s.ms)
Size:                   700,323,840 bytes
Total Bitrate:          22.41 Mbps
VIDEO:
Codec                   Bitrate             Description
-----                   -------             -----------
MPEG-4 AVC Video        5382 kbps           1080p / 23.976 fps / 16:9 / High Profile 4.1
AUDIO:
Codec                           Language        Bitrate         Description
-----                           --------        -------         -----------
LPCM Audio                      English         4608 kbps       2.0 / 96 kHz / 4608 kbps / 24-bit
DTS-HD Master Audio             English         5267 kbps       5.1 / 96 kHz / 5267 kbps / 24-bit (DTS Core: 5.1 / 48 kHz / 1509 kbps / 24-bit)
Dolby TrueHD Audio              English         4778 kbps       5.1 / 96 kHz / 4778 kbps / 16-bit (AC3 Core: 5.1 / 48 kHz / 640 kbps)
FILES:
Name            Time In         Length          Size            Total Bitrate
----            -------         ------          ----            -------------
00001.M2TS      0:00:00.000     0:04:09.999     700,323,840     22,410 kbps
CHAPTERS:
Number          Time In         Length          Avg Video Rate  Max 1-Sec Rate  Max 1-Sec Time  Max 5-Sec Rate  Max 5-Sec Time  Max 10Sec Rate  Max 10Sec Time  Avg Frame Size  Max Frame Size  Max Frame Time
------          -------         ------          --------------  --------------  --------------  --------------  --------------  --------------  --------------  --------------  --------------  --------------
1               0:00:00.000     0:04:09.999     5,380 kbps      8,806 kbps      0:00:00.792     5,911 kbps      0:00:20.395     5,852 kbps      0:00:18.351     28,035 bytes    783,563 bytes   0:01:26.836
STREAM DIAGNOSTICS:
File            PID             Type            Codec           Language                Seconds                 Bitrate                 Bytes           Packets
----            ---             ----            -----           --------                --------------          --------------          -------------   -----
00001.M2TS      4113 (0x1011)   0x1B            AVC                                     249.79                  5381.95                 168,045,395     916,745
00001.M2TS      4352 (0x1100)   0x80            LPCM            eng (English)           249.96                  4608                    144,176,928     799,872
00001.M2TS      4353 (0x1101)   0x86            DTS-HD MA       eng (English)           249.97                  5266.62                 164,564,344     933,312
00001.M2TS      4354 (0x1102)   0x83            TrueHD          eng (English)           249.95                  4777.99                 149,282,900     986,332



QUICK SUMMARY:
Disc Title: Rush - A Farewell To Kings
Disc Size: 13,286,242,304 bytes
Protection: AACS(v63)
BD-Java: Yes
Playlist: 00001.MPLS
Size: 700,323,840 bytes
Length: 0:04:09.999
Total Bitrate: 22.41 Mbps
Video: MPEG-4 AVC Video / 5382 kbps / 1080p / 23.976 fps / 16:9 / High Profile 4.1
Audio: English / LPCM Audio / 2.0 / 96 kHz / 4608 kbps / 24-bit
Audio: English / DTS-HD Master Audio / 5.1 / 96 kHz / 5267 kbps / 24-bit (DTS Core: 5.1 / 48 kHz / 1509 kbps / 24-bit)
Audio: English / Dolby TrueHD Audio / 5.1 / 96 kHz / 4778 kbps / 16-bit (AC3 Core: 5.1 / 48 kHz / 640 kbps)
********************
PLAYLIST: 01000.MPLS
********************


Код:

                                                                                Total   Video
Title                                                           Codec   Length   Movie Size      Disc Size       Bitrate Bitrate Main Audio Track                          Secondary Audio Track
-----                                                           ------  -------  --------------  --------------  ------- ------- ------------------                        ---------------------
01000.MPLS                                                      AVC     0:04:09  700,323,840     13,286,242,304  22.41   5.38    LPCM 2.0                                  DTS-HD Master 5.1DTS-HD Master 5.1


Код:

DISC INFO:
Disc Title:     Rush - A Farewell To Kings
Disc Size:      13,286,242,304 bytes
Protection:     AACS(v63)
BD-Java:        Yes
BDInfo:         0.5.8.1 (compatible layout d by DVDFab 9.3.1.2)
PLAYLIST REPORT:
Name:                   01000.MPLS
Length:                 0:04:09.999 (h:m:s.ms)
Size:                   700,323,840 bytes
Total Bitrate:          22.41 Mbps
VIDEO:
Codec                   Bitrate             Description
-----                   -------             -----------
MPEG-4 AVC Video        5382 kbps           1080p / 23.976 fps / 16:9 / High Profile 4.1
AUDIO:
Codec                           Language        Bitrate         Description
-----                           --------        -------         -----------
LPCM Audio                      English         4608 kbps       2.0 / 96 kHz / 4608 kbps / 24-bit
DTS-HD Master Audio             English         5267 kbps       5.1 / 96 kHz / 5267 kbps / 24-bit (DTS Core: 5.1 / 48 kHz / 1509 kbps / 24-bit)
Dolby TrueHD Audio              English         4778 kbps       5.1 / 96 kHz / 4778 kbps / 16-bit (AC3 Core: 5.1 / 48 kHz / 640 kbps)
FILES:
Name            Time In         Length          Size            Total Bitrate
----            -------         ------          ----            -------------
00001.M2TS      0:00:00.000     0:04:09.999     700,323,840     22,410 kbps
CHAPTERS:
Number          Time In         Length          Avg Video Rate  Max 1-Sec Rate  Max 1-Sec Time  Max 5-Sec Rate  Max 5-Sec Time  Max 10Sec Rate  Max 10Sec Time  Avg Frame Size  Max Frame Size  Max Frame Time
------          -------         ------          --------------  --------------  --------------  --------------  --------------  --------------  --------------  --------------  --------------  --------------
1               0:00:00.000     0:04:09.999     5,343 kbps      8,806 kbps      0:00:00.792     5,911 kbps      0:00:20.395     5,852 kbps      0:00:18.351     28,052 bytes    783,563 bytes   0:01:26.836
STREAM DIAGNOSTICS:
File            PID             Type            Codec           Language                Seconds                 Bitrate                 Bytes           Packets
----            ---             ----            -----           --------                --------------          --------------          -------------   -----
00001.M2TS      4113 (0x1011)   0x1B            AVC                                     249.79                  5381.95                 168,045,395     916,745
00001.M2TS      4352 (0x1100)   0x80            LPCM            eng (English)           249.96                  4608                    144,176,928     799,872
00001.M2TS      4353 (0x1101)   0x86            DTS-HD MA       eng (English)           249.97                  5266.62                 164,564,344     933,312
00001.M2TS      4354 (0x1102)   0x83            TrueHD          eng (English)           249.95                  4777.99                 149,282,900     986,332



QUICK SUMMARY:
Disc Title: Rush - A Farewell To Kings
Disc Size: 13,286,242,304 bytes
Protection: AACS(v63)
BD-Java: Yes
Playlist: 01000.MPLS
Size: 700,323,840 bytes
Length: 0:04:09.999
Total Bitrate: 22.41 Mbps
Video: MPEG-4 AVC Video / 5382 kbps / 1080p / 23.976 fps / 16:9 / High Profile 4.1
Audio: English / LPCM Audio / 2.0 / 96 kHz / 4608 kbps / 24-bit
Audio: English / DTS-HD Master Audio / 5.1 / 96 kHz / 5267 kbps / 24-bit (DTS Core: 5.1 / 48 kHz / 1509 kbps / 24-bit)
Audio: English / Dolby TrueHD Audio / 5.1 / 96 kHz / 4778 kbps / 16-bit (AC3 Core: 5.1 / 48 kHz / 640 kbps)
********************
PLAYLIST: 00006.MPLS
********************


Код:

                                                                                Total   Video
Title                                                           Codec   Length   Movie Size      Disc Size       Bitrate Bitrate Main Audio Track                          Secondary Audio Track
-----                                                           ------  -------  --------------  --------------  ------- ------- ------------------                        ---------------------
00006.MPLS                                                      AVC     0:02:57  574,599,168     13,286,242,304  25.95   5.93    LPCM 2.0                                  DTS-HD Master 5.1DTS-HD Master 5.1


Код:

DISC INFO:
Disc Title:     Rush - A Farewell To Kings
Disc Size:      13,286,242,304 bytes
Protection:     AACS(v63)
BD-Java:        Yes
BDInfo:         0.5.8.1 (compatible layout d by DVDFab 9.3.1.2)
PLAYLIST REPORT:
Name:                   00006.MPLS
Length:                 0:02:57.143 (h:m:s.ms)
Size:                   574,599,168 bytes
Total Bitrate:          25.95 Mbps
VIDEO:
Codec                   Bitrate             Description
-----                   -------             -----------
MPEG-4 AVC Video        5934 kbps           480i / 29.970 fps / 16:9 / High Profile 4.1
AUDIO:
Codec                           Language        Bitrate         Description
-----                           --------        -------         -----------
LPCM Audio                      English         4608 kbps       2.0 / 96 kHz / 4608 kbps / 24-bit
DTS-HD Master Audio             English         6419 kbps       5.1 / 96 kHz / 6419 kbps / 24-bit (DTS Core: 5.1 / 48 kHz / 1509 kbps / 24-bit)
Dolby TrueHD Audio              English         6367 kbps       5.1 / 96 kHz / 6367 kbps / 16-bit (AC3 Core: 5.1 / 48 kHz / 640 kbps)
FILES:
Name            Time In         Length          Size            Total Bitrate
----            -------         ------          ----            -------------
00006.M2TS      0:00:00.000     0:02:57.143     574,599,168     25,949 kbps
CHAPTERS:
Number          Time In         Length          Avg Video Rate  Max 1-Sec Rate  Max 1-Sec Time  Max 5-Sec Rate  Max 5-Sec Time  Max 10Sec Rate  Max 10Sec Time  Avg Frame Size  Max Frame Size  Max Frame Time
------          -------         ------          --------------  --------------  --------------  --------------  --------------  --------------  --------------  --------------  --------------  --------------
1               0:00:00.000     0:02:57.143     5,932 kbps      8,365 kbps      0:01:45.939     7,187 kbps      0:01:35.462     6,885 kbps      0:01:30.356     24,735 bytes    68,119 bytes    0:01:46.973
STREAM DIAGNOSTICS:
File            PID             Type            Codec           Language                Seconds                 Bitrate                 Bytes           Packets
----            ---             ----            -----           --------                --------------          --------------          -------------   -----
00006.M2TS      4113 (0x1011)   0x1B            AVC                                     177.04                  5933.92                 131,320,244     716,807
00006.M2TS      4352 (0x1100)   0x80            LPCM            eng (English)           177.10                  4608                    102,157,048     566,752
00006.M2TS      4353 (0x1101)   0x86            DTS-HD MA       eng (English)           177.13                  6419.37                 142,133,340     800,080
00006.M2TS      4354 (0x1102)   0x83            TrueHD          eng (English)           177.09                  6367.34                 140,946,310     901,089



QUICK SUMMARY:
Disc Title: Rush - A Farewell To Kings
Disc Size: 13,286,242,304 bytes
Protection: AACS(v63)
BD-Java: Yes
Playlist: 00006.MPLS
Size: 574,599,168 bytes
Length: 0:02:57.143
Total Bitrate: 25.95 Mbps
Video: MPEG-4 AVC Video / 5934 kbps / 480i / 29.970 fps / 16:9 / High Profile 4.1
Audio: English / LPCM Audio / 2.0 / 96 kHz / 4608 kbps / 24-bit
Audio: English / DTS-HD Master Audio / 5.1 / 96 kHz / 6419 kbps / 24-bit (DTS Core: 5.1 / 48 kHz / 1509 kbps / 24-bit)
Audio: English / Dolby TrueHD Audio / 5.1 / 96 kHz / 6367 kbps / 16-bit (AC3 Core: 5.1 / 48 kHz / 640 kbps)
********************
PLAYLIST: 01007.MPLS
********************


Код:

                                                                                Total   Video
Title                                                           Codec   Length   Movie Size      Disc Size       Bitrate Bitrate Main Audio Track                          Secondary Audio Track
-----                                                           ------  -------  --------------  --------------  ------- ------- ------------------                        ---------------------
01007.MPLS                                                      AVC     0:02:57  574,599,168     13,286,242,304  25.95   5.93    LPCM 2.0                                  DTS-HD Master 5.1DTS-HD Master 5.1


Код:

DISC INFO:
Disc Title:     Rush - A Farewell To Kings
Disc Size:      13,286,242,304 bytes
Protection:     AACS(v63)
BD-Java:        Yes
BDInfo:         0.5.8.1 (compatible layout d by DVDFab 9.3.1.2)
PLAYLIST REPORT:
Name:                   01007.MPLS
Length:                 0:02:57.143 (h:m:s.ms)
Size:                   574,599,168 bytes
Total Bitrate:          25.95 Mbps
VIDEO:
Codec                   Bitrate             Description
-----                   -------             -----------
MPEG-4 AVC Video        5934 kbps           480i / 29.970 fps / 16:9 / High Profile 4.1
AUDIO:
Codec                           Language        Bitrate         Description
-----                           --------        -------         -----------
LPCM Audio                      English         4608 kbps       2.0 / 96 kHz / 4608 kbps / 24-bit
DTS-HD Master Audio             English         6419 kbps       5.1 / 96 kHz / 6419 kbps / 24-bit (DTS Core: 5.1 / 48 kHz / 1509 kbps / 24-bit)
Dolby TrueHD Audio              English         6367 kbps       5.1 / 96 kHz / 6367 kbps / 16-bit (AC3 Core: 5.1 / 48 kHz / 640 kbps)
FILES:
Name            Time In         Length          Size            Total Bitrate
----            -------         ------          ----            -------------
00006.M2TS      0:00:00.000     0:02:57.143     574,599,168     25,949 kbps
CHAPTERS:
Number          Time In         Length          Avg Video Rate  Max 1-Sec Rate  Max 1-Sec Time  Max 5-Sec Rate  Max 5-Sec Time  Max 10Sec Rate  Max 10Sec Time  Avg Frame Size  Max Frame Size  Max Frame Time
------          -------         ------          --------------  --------------  --------------  --------------  --------------  --------------  --------------  --------------  --------------  --------------
1               0:00:00.000     0:02:57.143     5,915 kbps      8,365 kbps      0:01:45.939     7,187 kbps      0:01:35.462     6,885 kbps      0:01:30.356     24,817 bytes    68,119 bytes    0:01:46.973
STREAM DIAGNOSTICS:
File            PID             Type            Codec           Language                Seconds                 Bitrate                 Bytes           Packets
----            ---             ----            -----           --------                --------------          --------------          -------------   -----
00006.M2TS      4113 (0x1011)   0x1B            AVC                                     177.04                  5933.92                 131,320,244     716,807
00006.M2TS      4352 (0x1100)   0x80            LPCM            eng (English)           177.10                  4608                    102,157,048     566,752
00006.M2TS      4353 (0x1101)   0x86            DTS-HD MA       eng (English)           177.13                  6419.37                 142,133,340     800,080
00006.M2TS      4354 (0x1102)   0x83            TrueHD          eng (English)           177.09                  6367.34                 140,946,310     901,089



QUICK SUMMARY:
Disc Title: Rush - A Farewell To Kings
Disc Size: 13,286,242,304 bytes
Protection: AACS(v63)
BD-Java: Yes
Playlist: 01007.MPLS
Size: 574,599,168 bytes
Length: 0:02:57.143
Total Bitrate: 25.95 Mbps
Video: MPEG-4 AVC Video / 5934 kbps / 480i / 29.970 fps / 16:9 / High Profile 4.1
Audio: English / LPCM Audio / 2.0 / 96 kHz / 4608 kbps / 24-bit
Audio: English / DTS-HD Master Audio / 5.1 / 96 kHz / 6419 kbps / 24-bit (DTS Core: 5.1 / 48 kHz / 1509 kbps / 24-bit)
Audio: English / Dolby TrueHD Audio / 5.1 / 96 kHz / 6367 kbps / 16-bit (AC3 Core: 5.1 / 48 kHz / 640 kbps)



Скриншоты меню


Об исполнителе (группе)

HRAudio.net

Раздаю до первых 5-ти скачавших, на раздачи не возвращаюсь...
Категория Музыка / Мультимедиа RSS лента
Добавлен (1 год, 1 месяц назад)
Просмотров 34 раз (a)
Взят 3 раз (a)
Файлы 190, 14.54 GB (15 608 062 298 байт)
Раздал ViKa  (Искать торренты)
Участники
Завершено: 0 (0)
Просматривают

« Chorals from The Frostrune - Hjarahljóð (Alexander K. Lykke) - 2017, MP3, 320 kbps -†- ¿? -†- Verneri Pohjola & Mika Kallio - Animal Image - 2018, FLAC (tracks), lossless »

:: Список Комментариев
Нет комментариев.

 Нет комментариев
Самые активные релизы за неделю
Музыка / Мультимедиа
Music News (Vol.105) ( Pop / 2021 )
  • Music News (Vol.105) ( Pop / 2021 )
  • Black Hole Trance Music (07-20) ( Trance / 2020 )
  • ЕвроХит Топ 40 Europa Plus (Все треки года 2020) ( Pop / 2021 )
  • Music News (Vol.106) ( Pop / 2021 )
  • The Official UK Top 40 Singles Chart (02.10.2020) ( Pop / 2020 )
  • The Official UK Top 40 Singles Chart (25.09.2020) ( Pop / 2020 )
  • The Official UK Top 40 Singles Chart (17.07.2020) ( Pop / 2020 )
  • The Official UK Top 40 Singles Chart (10.07.2020) ( Pop / 2020 )
  • The Official UK Top 40 Singles Chart (04.09.2020) ( Pop / 2020 )
  • ЕвроХит Топ 40 Europa Plus (18.09.2020) ( Pop / 2020 )
  • ЕвроХит Топ 40 Europa Plus (18.06.2021) ( Pop / 2021 )
  • ЕвроХит Топ 40 Europa Plus (11.06.2021) ( Pop / 2021 )

Счетчики
Яндекс.Метрика Анализ сайта hit-muzik.ru

Поделится ссылкой