Привет, Гость

Войти на сайт
Регистрация
Восстановить Пароль

Наша группа в ВК

Копилка сайта

Правообладателям

Для удаления авторских файлов, пишите по адреcу: [email protected].
Чтобы ваше письмо не было проигнорировано и было обработано автоматической системой удаления авторских раздач, необходимо соблюдать правила оформления текста:
* Присылайте абсолютные адреса ссылок на торрент-раздачи (с табуляцией, с отступами)
* Ни pdf, ни doc файлы не читаются скриптом, за исключением rtf формата

Просьба это учесть при оформлении письма (ем).


Связанные раздачи
Загрузка / Обновление

:: Детали раздачи
Раздача является мультитрекерной — учтите, количество раздающих не будет совпадать с количеством участников на сайте (скачивание на клиентской стороне зависит от настроек µTorrent клиент программы, настройки -> Включить DHT, Обмен пирами и Поиск лок-х пиров).
Если висит надпись, пиры по нулям - не бойтесь, возможность скачать повторно раздачу - есть. Попробуйте, в случае отказа - прокоментируйте или нажмите на "Позвать скачавших".

XTC - Oranges & Lemons (Special edition) - 1989/2015 (New Wave, Pop Rock)

Скачать Скачать торрент источник 1 Скачать .torrent файл (основная ссылка для скачивания файла)
Скачать торрент источник 1 Скачать архивом (основная ссылка)
Теги new wave, pop rock, 1989
Описание
XTC - Oranges & Lemons (Special edition) - 1989/2015 (New Wave, Pop Rock)
XTC / Oranges & Lemons
Формат записи/Источник записи:
[OF]
Наличие водяных знаков: Нет
Издание: Special edition
Год издания/переиздания диска: 1989/2015
Жанр: New Wave, Pop Rock
Издатель (лейбл): Ape House ‎– APEBD109
Продолжительность: 06:42:38 + 00:25:16 (видео)
Наличие сканов в содержимом раздачи: Нет
http://i84.fastpic.ru/big/2016/1122/df/97dbf69c42c3e51d27448bfb733b3ddf.jpg

Треклист

Контейнер: BDMV
Тип рипа: folder
Разрядность: 24/192
Формат: DTS-HD MA
Количество каналов: 5.1
Другие дорожки звука:
24/192 PCM 5.1
24/192 PCM 2.0
24/192 DTS-HD MA 2.0
24/96 PCM 5.1
24/96 PCM 2.0
24/48 PCM 2.0

BDInfo


Код:

DISC INFO:
Disc Title:     XTC.Oranges & Lemons.2015.BDA1080p
Disc Size:      40 267 404 994 bytes
Protection:     AACS
BD-Java:        Yes
BDInfo:         0.5.8
PLAYLIST REPORT:
Name:                   00005.MPLS
Length:                 1:03:18.669 (h:m:s.ms)
Size:                   9 154 858 368 bytes
Total Bitrate:          19,28 Mbps
VIDEO:
Codec                   Bitrate             Description
-----                   -------             -----------
MPEG-4 AVC Video        2749 kbps           1080p / 23,976 fps / 16:9 / High Profile 4.1
AUDIO:
Codec                           Language        Bitrate         Description
-----                           --------        -------         -----------
DTS-HD Master Audio             English         6006 kbps       2.0 / 192 kHz / 6006 kbps / 24-bit (DTS Core: 2.0 / 48 kHz / 1509 kbps / 24-bit)
LPCM Audio                      English         9216 kbps       2.0 / 192 kHz / 9216 kbps / 24-bit
FILES:
Name            Time In         Length          Size            Total Bitrate
----            -------         ------          ----            -------------
00005.M2TS      0:00:00.000     1:03:18.669     9 154 858 368   19 280
CHAPTERS:
Number          Time In         Length          Avg Video Rate  Max 1-Sec Rate  Max 1-Sec Time  Max 5-Sec Rate  Max 5-Sec Time  Max 10Sec Rate  Max 10Sec Time  Avg Frame Size  Max Frame Size  Max Frame Time
------          -------         ------          --------------  --------------  --------------  --------------  --------------  --------------  --------------  --------------  --------------  --------------
1               0:00:00.000     0:05:14.981     2 742 kbps      8 694 kbps      00:00:02.002    3 880 kbps      00:00:02.001    3 282 kbps      00:00:02.001    14 295 bytes    337 275 bytes   00:01:21.039
2               0:05:14.981     0:04:04.452     2 754 kbps      5 383 kbps      00:09:18.432    3 273 kbps      00:09:14.428    3 010 kbps      00:09:09.423    14 359 bytes    337 210 bytes   00:05:16.941
3               0:09:19.433     0:03:39.928     2 747 kbps      5 446 kbps      00:12:58.360    3 284 kbps      00:12:54.356    3 014 kbps      00:12:49.351    14 322 bytes    337 681 bytes   00:12:59.320
4               0:12:59.361     0:03:35.256     2 760 kbps      5 081 kbps      00:16:33.617    3 216 kbps      00:16:29.613    2 982 kbps      00:16:24.608    14 387 bytes    337 682 bytes   00:13:00.321
5               0:16:34.618     0:04:29.686     2 749 kbps      5 438 kbps      00:21:03.303    3 282 kbps      00:20:59.299    3 012 kbps      00:20:54.294    14 330 bytes    337 293 bytes   00:21:04.263
6               0:21:04.304     0:03:49.979     2 749 kbps      5 445 kbps      00:24:53.283    3 285 kbps      00:24:49.279    3 016 kbps      00:24:44.274    14 330 bytes    337 304 bytes   00:21:05.263
7               0:24:54.284     0:04:41.280     2 745 kbps      2 745 kbps      00:24:54.284    2 745 kbps      00:24:54.284    2 745 kbps      00:24:54.284    14 310 bytes    337 149 bytes   00:24:55.243
8               0:29:35.565     0:04:18.508     2 752 kbps      5 404 kbps      00:33:53.072    3 276 kbps      00:33:49.068    3 010 kbps      00:33:44.063    14 345 bytes    337 051 bytes   00:29:37.525
9               0:33:54.073     0:03:33.755     2 750 kbps      5 440 kbps      00:37:26.827    3 283 kbps      00:37:22.823    3 014 kbps      00:37:17.818    14 336 bytes    336 982 bytes   00:33:55.033
10              0:37:27.828     0:03:33.463     2 753 kbps      5 404 kbps      00:41:00.291    3 275 kbps      00:40:56.287    3 009 kbps      00:40:51.282    14 351 bytes    337 019 bytes   00:41:01.250
11              0:41:01.292     0:04:54.502     2 752 kbps      5 384 kbps      00:45:54.793    3 273 kbps      00:45:50.789    3 009 kbps      00:45:45.784    14 347 bytes    337 345 bytes   00:45:55.753
12              0:45:55.794     0:04:00.406     2 756 kbps      5 345 kbps      00:49:55.200    3 267 kbps      00:49:51.196    3 007 kbps      00:49:46.191    14 368 bytes    337 355 bytes   00:45:57.755
13              0:49:56.201     0:03:58.988     2 746 kbps      5 441 kbps      00:53:54.189    3 283 kbps      00:53:50.185    3 013 kbps      00:53:45.180    14 315 bytes    337 055 bytes   00:53:55.148
14              0:53:55.190     0:04:14.963     2 747 kbps      5 443 kbps      00:58:09.152    3 284 kbps      00:58:05.148    3 014 kbps      00:58:00.143    14 322 bytes    337 211 bytes   00:58:10.111
15              0:58:10.153     0:05:08.516     2 744 kbps      2 746 kbps      00:58:10.153    2 746 kbps      00:58:10.153    2 746 kbps      00:58:10.153    14 309 bytes    337 212 bytes   00:58:11.112
STREAM DIAGNOSTICS:
File            PID             Type            Codec           Language                Seconds                 Bitrate                 Bytes           Packets
----            ---             ----            -----           --------                --------------          --------------          -------------   -----
00005.M2TS      4113 (0x1011)   0x1B            AVC                                     3798,586                2 749                   1 305 435 906   7 148 251
00005.M2TS      4352 (0x1100)   0x86            DTS-HD MA       eng (English)           3798,586                6 006                   2 851 805 192   16 094 386
00005.M2TS      4353 (0x1101)   0x80            LPCM            eng (English)           3798,586                9 223                   4 379 135 596   24 311 648



QUICK SUMMARY:
Disc Title: XTC.Oranges & Lemons.2015.BDA1080p
Disc Size: 40 267 404 994 bytes
Protection: AACS
BD-Java: Yes
Playlist: 00005.MPLS
Size: 9 154 858 368 bytes
Length: 1:03:18.669
Total Bitrate: 19,28 Mbps
Video: MPEG-4 AVC Video / 2749 kbps / 1080p / 23,976 fps / 16:9 / High Profile 4.1
Audio: English / DTS-HD Master Audio / 2.0 / 192 kHz / 6006 kbps / 24-bit (DTS Core: 2.0 / 48 kHz / 1509 kbps / 24-bit)
Audio: English / LPCM Audio / 2.0 / 192 kHz / 9216 kbps / 24-bit
********************
PLAYLIST: 00004.MPLS
********************


Код:

                                                                                Total   Video
Title                                                           Codec   Length  Movie Size      Disc Size       Bitrate Bitrate Main Audio Track                          Secondary Audio Track
-----                                                           ------  ------- --------------  --------------  ------- ------- ------------------                        ---------------------
00004.MPLS                                                      AVC     1:02:02 15 030 586 752  40 267 404 994  32,30   2,93    LPCM 2.0 4608Kbps (96kHz/24-bit)          DTS-HD Master 5.1 8878Kbps (96kHz/24-bit)


Код:

DISC INFO:
Disc Title:     XTC.Oranges & Lemons.2015.BDA1080p
Disc Size:      40 267 404 994 bytes
Protection:     AACS
BD-Java:        Yes
BDInfo:         0.5.8
PLAYLIST REPORT:
Name:                   00004.MPLS
Length:                 1:02:02.969 (h:m:s.ms)
Size:                   15 030 586 752 bytes
Total Bitrate:          32,30 Mbps
VIDEO:
Codec                   Bitrate             Description
-----                   -------             -----------
MPEG-4 AVC Video        2935 kbps           1080p / 23,976 fps / 16:9 / High Profile 4.1
AUDIO:
Codec                           Language        Bitrate         Description
-----                           --------        -------         -----------
LPCM Audio                      English         4608 kbps       2.0 / 96 kHz / 4608 kbps / 24-bit
DTS-HD Master Audio             English         8878 kbps       5.1 / 96 kHz / 8878 kbps / 24-bit (DTS Core: 5.1 / 48 kHz / 1509 kbps / 24-bit)
LPCM Audio                      English         13824 kbps      5.1 / 96 kHz / 13824 kbps / 24-bit
FILES:
Name            Time In         Length          Size            Total Bitrate
----            -------         ------          ----            -------------
00004.M2TS      0:00:00.000     1:02:02.969     15 030 586 752  32 298
CHAPTERS:
Number          Time In         Length          Avg Video Rate  Max 1-Sec Rate  Max 1-Sec Time  Max 5-Sec Rate  Max 5-Sec Time  Max 10Sec Rate  Max 10Sec Time  Avg Frame Size  Max Frame Size  Max Frame Time
------          -------         ------          --------------  --------------  --------------  --------------  --------------  --------------  --------------  --------------  --------------  --------------
1               0:00:00.000     0:05:08.975     2 892 kbps      8 364 kbps      00:00:02.002    3 928 kbps      00:00:02.001    3 378 kbps      00:00:02.001    15 074 bytes    359 236 bytes   00:05:05.304
2               0:05:08.975     0:04:00.990     2 924 kbps      5 781 kbps      00:09:08.965    3 498 kbps      00:09:04.961    3 212 kbps      00:08:59.956    15 246 bytes    360 906 bytes   00:09:08.172
3               0:09:09.966     0:03:43.014     2 931 kbps      5 816 kbps      00:12:51.979    3 507 kbps      00:12:47.975    3 218 kbps      00:12:42.970    15 280 bytes    362 056 bytes   00:12:52.938
4               0:12:52.980     0:03:37.008     2 940 kbps      5 826 kbps      00:16:28.988    3 514 kbps      00:16:24.984    3 226 kbps      00:16:19.979    15 328 bytes    362 221 bytes   00:15:06.071
5               0:16:29.989     0:04:19.008     2 935 kbps      5 826 kbps      00:20:47.996    3 512 kbps      00:20:43.992    3 223 kbps      00:20:38.987    15 301 bytes    361 838 bytes   00:20:48.956
6               0:20:48.997     0:03:29.000     2 940 kbps      5 831 kbps      00:24:16.997    3 516 kbps      00:24:12.993    3 227 kbps      00:24:07.988    15 329 bytes    361 856 bytes   00:23:38.125
7               0:24:17.998     0:04:38.987     2 940 kbps      5 829 kbps      00:28:55.984    3 516 kbps      00:28:51.980    3 227 kbps      00:28:46.975    15 330 bytes    361 640 bytes   00:24:19.958
8               0:28:56.985     0:04:15.004     2 940 kbps      5 831 kbps      00:33:10.988    3 517 kbps      00:33:06.984    3 228 kbps      00:33:01.979    15 329 bytes    361 522 bytes   00:28:57.944
9               0:33:11.989     0:03:29.000     2 942 kbps      5 832 kbps      00:36:39.989    3 517 kbps      00:36:35.985    3 228 kbps      00:36:30.980    15 336 bytes    361 476 bytes   00:33:13.950
10              0:36:40.990     0:03:20.992     2 942 kbps      5 834 kbps      00:40:00.981    3 519 kbps      00:39:56.977    3 229 kbps      00:39:51.972    15 340 bytes    361 522 bytes   00:40:01.941
11              0:40:01.982     0:04:53.001     2 944 kbps      5 837 kbps      00:44:53.982    3 520 kbps      00:44:49.978    3 231 kbps      00:44:44.973    15 347 bytes    361 874 bytes   00:44:54.942
12              0:44:54.983     0:03:52.982     2 946 kbps      5 836 kbps      00:48:46.965    3 521 kbps      00:48:42.961    3 232 kbps      00:48:37.956    15 359 bytes    361 875 bytes   00:44:55.943
13              0:48:47.966     0:03:57.028     2 942 kbps      5 834 kbps      00:52:43.994    3 518 kbps      00:52:39.990    3 229 kbps      00:52:34.985    15 336 bytes    361 494 bytes   00:52:44.953
14              0:52:44.995     0:04:08.998     2 942 kbps      5 835 kbps      00:56:52.992    3 519 kbps      00:56:48.988    3 229 kbps      00:56:43.983    15 340 bytes    361 702 bytes   00:56:53.952
15              0:56:53.993     0:05:08.975     2 935 kbps      2 941 kbps      00:56:58.957    2 941 kbps      00:56:54.953    2 941 kbps      00:56:53.993    15 307 bytes    361 712 bytes   00:56:55.954
STREAM DIAGNOSTICS:
File            PID             Type            Codec           Language                Seconds                 Bitrate                 Bytes           Packets
----            ---             ----            -----           --------                --------------          --------------          -------------   -----
00004.M2TS      4113 (0x1011)   0x1B            AVC                                     3722,844                2 935                   1 365 790 546   7 470 001
00004.M2TS      4352 (0x1100)   0x80            LPCM            eng (English)           3722,844                4 615                   2 147 426 400   11 913 600
00004.M2TS      4353 (0x1101)   0x86            DTS-HD MA       eng (English)           3722,844                8 879                   4 131 672 672   23 035 147
00004.M2TS      4354 (0x1102)   0x80            LPCM            eng (English)           3722,844                13 831                  6 436 322 400   35 740 800



QUICK SUMMARY:
Disc Title: XTC.Oranges & Lemons.2015.BDA1080p
Disc Size: 40 267 404 994 bytes
Protection: AACS
BD-Java: Yes
Playlist: 00004.MPLS
Size: 15 030 586 752 bytes
Length: 1:02:02.969
Total Bitrate: 32,30 Mbps
Video: MPEG-4 AVC Video / 2935 kbps / 1080p / 23,976 fps / 16:9 / High Profile 4.1
Audio: English / LPCM Audio / 2.0 / 96 kHz / 4608 kbps / 24-bit
Audio: English / DTS-HD Master Audio / 5.1 / 96 kHz / 8878 kbps / 24-bit (DTS Core: 5.1 / 48 kHz / 1509 kbps / 24-bit)
Audio: English / LPCM Audio / 5.1 / 96 kHz / 13824 kbps / 24-bit
********************
PLAYLIST: 00006.MPLS
********************


Код:

                                                                                Total   Video
Title                                                           Codec   Length  Movie Size      Disc Size       Bitrate Bitrate Main Audio Track                          Secondary Audio Track
-----                                                           ------  ------- --------------  --------------  ------- ------- ------------------                        ---------------------
00006.MPLS                                                      AVC     1:02:02 3 734 498 688   40 267 404 994  8,02    2,91    LPCM 2.0 4608Kbps (96kHz/24-bit)


Код:

DISC INFO:
Disc Title:     XTC.Oranges & Lemons.2015.BDA1080p
Disc Size:      40 267 404 994 bytes
Protection:     AACS
BD-Java:        Yes
BDInfo:         0.5.8
PLAYLIST REPORT:
Name:                   00006.MPLS
Length:                 1:02:02.969 (h:m:s.ms)
Size:                   3 734 498 688 bytes
Total Bitrate:          8,02 Mbps
VIDEO:
Codec                   Bitrate             Description
-----                   -------             -----------
MPEG-4 AVC Video        2912 kbps           1080p / 23,976 fps / 16:9 / High Profile 4.1
AUDIO:
Codec                           Language        Bitrate         Description
-----                           --------        -------         -----------
LPCM Audio                      English         4608 kbps       2.0 / 96 kHz / 4608 kbps / 24-bit
FILES:
Name            Time In         Length          Size            Total Bitrate
----            -------         ------          ----            -------------
00006.M2TS      0:00:00.000     1:02:02.969     3 734 498 688   8 025
CHAPTERS:
Number          Time In         Length          Avg Video Rate  Max 1-Sec Rate  Max 1-Sec Time  Max 5-Sec Rate  Max 5-Sec Time  Max 10Sec Rate  Max 10Sec Time  Avg Frame Size  Max Frame Size  Max Frame Time
------          -------         ------          --------------  --------------  --------------  --------------  --------------  --------------  --------------  --------------  --------------  --------------
1               0:00:00.000     0:05:08.975     2 878 kbps      8 390 kbps      00:00:02.002    3 922 kbps      00:00:02.001    3 365 kbps      00:00:02.001    15 001 bytes    357 305 bytes   00:04:59.299
2               0:05:08.975     0:04:00.990     2 906 kbps      5 762 kbps      00:09:08.965    3 479 kbps      00:09:04.961    3 193 kbps      00:08:59.956    15 153 bytes    358 559 bytes   00:09:08.172
3               0:09:09.966     0:03:43.014     2 909 kbps      5 780 kbps      00:12:51.979    3 482 kbps      00:12:47.975    3 195 kbps      00:12:42.970    15 165 bytes    359 036 bytes   00:12:52.938
4               0:12:52.980     0:03:37.008     2 919 kbps      5 782 kbps      00:16:28.988    3 490 kbps      00:16:24.984    3 204 kbps      00:16:19.979    15 218 bytes    359 164 bytes   00:14:00.005
5               0:16:29.989     0:04:19.008     2 914 kbps      5 782 kbps      00:20:47.996    3 485 kbps      00:20:43.992    3 198 kbps      00:20:38.987    15 190 bytes    358 832 bytes   00:20:48.956
6               0:20:48.997     0:03:29.000     2 918 kbps      5 785 kbps      00:24:16.997    3 489 kbps      00:24:12.993    3 202 kbps      00:24:07.988    15 212 bytes    358 843 bytes   00:20:49.957
7               0:24:17.998     0:04:38.987     2 917 kbps      5 784 kbps      00:28:55.984    3 488 kbps      00:28:51.980    3 201 kbps      00:28:46.975    15 210 bytes    358 593 bytes   00:24:19.958
8               0:28:56.985     0:04:15.004     2 917 kbps      5 784 kbps      00:33:10.988    3 488 kbps      00:33:06.984    3 201 kbps      00:33:01.979    15 206 bytes    358 509 bytes   00:28:57.944
9               0:33:11.989     0:03:29.000     2 918 kbps      5 786 kbps      00:36:39.989    3 489 kbps      00:36:35.985    3 202 kbps      00:36:30.980    15 214 bytes    358 477 bytes   00:33:13.950
10              0:36:40.990     0:03:20.992     2 918 kbps      5 786 kbps      00:40:00.981    3 489 kbps      00:39:56.977    3 202 kbps      00:39:51.972    15 211 bytes    358 509 bytes   00:40:01.941
11              0:40:01.982     0:04:53.001     2 918 kbps      5 788 kbps      00:44:53.982    3 490 kbps      00:44:49.978    3 203 kbps      00:44:44.973    15 215 bytes    358 862 bytes   00:44:54.942
12              0:44:54.983     0:03:52.982     2 920 kbps      5 787 kbps      00:48:46.965    3 491 kbps      00:48:42.961    3 204 kbps      00:48:37.956    15 224 bytes    358 863 bytes   00:44:55.943
13              0:48:47.966     0:03:57.028     2 916 kbps      5 785 kbps      00:52:43.994    3 488 kbps      00:52:39.990    3 201 kbps      00:52:34.985    15 204 bytes    358 478 bytes   00:52:44.953
14              0:52:44.995     0:04:08.998     2 917 kbps      5 786 kbps      00:56:52.992    3 488 kbps      00:56:48.988    3 201 kbps      00:56:43.983    15 207 bytes    358 688 bytes   00:56:53.952
15              0:56:53.993     0:05:08.975     2 910 kbps      2 916 kbps      00:56:58.957    2 916 kbps      00:56:54.953    2 916 kbps      00:56:53.993    15 176 bytes    358 698 bytes   00:56:55.954
STREAM DIAGNOSTICS:
File            PID             Type            Codec           Language                Seconds                 Bitrate                 Bytes           Packets
----            ---             ----            -----           --------                --------------          --------------          -------------   -----
00006.M2TS      4113 (0x1011)   0x1B            AVC                                     3722,844                2 912                   1 355 262 198   7 412 177
00006.M2TS      4352 (0x1100)   0x80            LPCM            eng (English)           3722,844                4 615                   2 147 426 400   11 913 600



QUICK SUMMARY:
Disc Title: XTC.Oranges & Lemons.2015.BDA1080p
Disc Size: 40 267 404 994 bytes
Protection: AACS
BD-Java: Yes
Playlist: 00006.MPLS
Size: 3 734 498 688 bytes
Length: 1:02:02.969
Total Bitrate: 8,02 Mbps
Video: MPEG-4 AVC Video / 2912 kbps / 1080p / 23,976 fps / 16:9 / High Profile 4.1
Audio: English / LPCM Audio / 2.0 / 96 kHz / 4608 kbps / 24-bit
********************
PLAYLIST: 00007.MPLS
********************


Код:

                                                                                Total   Video
Title                                                           Codec   Length  Movie Size      Disc Size       Bitrate Bitrate Main Audio Track                          Secondary Audio Track
-----                                                           ------  ------- --------------  --------------  ------- ------- ------------------                        ---------------------
00007.MPLS                                                      AVC     0:57:09 2 426 760 576   40 267 404 994  5,66    3,00    LPCM 2.0 2304Kbps (48kHz/24-bit)


Код:

DISC INFO:
Disc Title:     XTC.Oranges & Lemons.2015.BDA1080p
Disc Size:      40 267 404 994 bytes
Protection:     AACS
BD-Java:        Yes
BDInfo:         0.5.8
PLAYLIST REPORT:
Name:                   00007.MPLS
Length:                 0:57:09.426 (h:m:s.ms)
Size:                   2 426 760 576 bytes
Total Bitrate:          5,66 Mbps
VIDEO:
Codec                   Bitrate             Description
-----                   -------             -----------
MPEG-4 AVC Video        3000 kbps           1080p / 23,976 fps / 16:9 / High Profile 4.1
AUDIO:
Codec                           Language        Bitrate         Description
-----                           --------        -------         -----------
LPCM Audio                      English         2304 kbps       2.0 / 48 kHz / 2304 kbps / 24-bit
FILES:
Name            Time In         Length          Size            Total Bitrate
----            -------         ------          ----            -------------
00007.M2TS      0:00:00.000     0:57:09.426     2 426 760 576   5 661
CHAPTERS:
Number          Time In         Length          Avg Video Rate  Max 1-Sec Rate  Max 1-Sec Time  Max 5-Sec Rate  Max 5-Sec Time  Max 10Sec Rate  Max 10Sec Time  Avg Frame Size  Max Frame Size  Max Frame Time
------          -------         ------          --------------  --------------  --------------  --------------  --------------  --------------  --------------  --------------  --------------  --------------
1               0:00:00.000     0:03:56.361     3 053 kbps      9 344 kbps      00:00:02.002    4 347 kbps      00:00:02.001    3 716 kbps      00:00:02.001    15 914 bytes    383 724 bytes   00:00:03.003
2               0:03:56.361     0:03:27.081     3 028 kbps      5 958 kbps      00:07:22.442    3 610 kbps      00:07:18.438    3 317 kbps      00:07:13.433    15 785 bytes    374 798 bytes   00:04:17.340
3               0:07:23.443     0:03:33.546     3 024 kbps      5 623 kbps      00:10:55.988    3 535 kbps      00:10:51.984    3 274 kbps      00:10:46.979    15 763 bytes    374 124 bytes   00:10:56.947
4               0:10:56.989     0:03:30.877     3 023 kbps      5 802 kbps      00:14:26.866    3 575 kbps      00:14:22.862    3 297 kbps      00:14:17.857    15 761 bytes    374 063 bytes   00:10:58.949
5               0:14:27.867     0:04:19.384     3 013 kbps      5 226 kbps      00:18:46.250    3 450 kbps      00:18:42.246    3 228 kbps      00:18:37.241    15 711 bytes    372 438 bytes   00:18:47.209
6               0:18:47.251     0:02:19.973     3 005 kbps      5 886 kbps      00:21:06.223    3 574 kbps      00:21:02.219    3 285 kbps      00:20:57.214    15 668 bytes    372 570 bytes   00:18:48.210
7               0:21:07.224     0:03:22.243     2 992 kbps      4 775 kbps      00:24:28.466    3 339 kbps      00:24:24.462    3 159 kbps      00:24:19.457    15 600 bytes    370 092 bytes   00:21:08.183
8               0:24:29.467     0:04:18.925     2 979 kbps      5 777 kbps      00:28:47.392    3 536 kbps      00:28:43.388    3 255 kbps      00:28:38.383    15 532 bytes    368 698 bytes   00:24:37.434
9               0:28:48.393     0:02:57.510     2 981 kbps      5 526 kbps      00:31:44.903    3 483 kbps      00:31:40.899    3 228 kbps      00:31:35.894    15 539 bytes    367 901 bytes   00:31:45.862
10              0:31:45.904     0:02:52.172     2 975 kbps      2 980 kbps      00:34:37.033    2 979 kbps      00:34:28.024    2 979 kbps      00:34:26.022    15 508 bytes    368 828 bytes   00:34:38.034
11              0:34:38.076     0:05:38.338     2 979 kbps      2 982 kbps      00:40:15.371    2 980 kbps      00:34:38.076    2 980 kbps      00:34:38.076    15 534 bytes    369 151 bytes   00:40:16.372
12              0:40:16.414     0:04:14.712     2 988 kbps      5 648 kbps      00:44:30.125    3 517 kbps      00:44:26.121    3 251 kbps      00:44:21.116    15 579 bytes    369 373 bytes   00:44:13.609
13              0:44:31.126     0:03:18.114     2 983 kbps      5 899 kbps      00:47:48.240    3 569 kbps      00:47:44.236    3 278 kbps      00:47:39.231    15 553 bytes    369 645 bytes   00:47:49.199
14              0:47:49.241     0:04:23.388     2 999 kbps      5 241 kbps      00:52:11.628    3 444 kbps      00:52:07.624    3 219 kbps      00:52:02.619    15 638 bytes    370 652 bytes   00:52:12.587
15              0:52:12.629     0:04:56.796     2 986 kbps      2 998 kbps      00:57:06.881    2 996 kbps      00:52:13.588    2 996 kbps      00:52:12.629    15 575 bytes    370 868 bytes   00:57:07.882
STREAM DIAGNOSTICS:
File            PID             Type            Codec           Language                Seconds                 Bitrate                 Bytes           Packets
----            ---             ----            -----           --------                --------------          --------------          -------------   -----
00007.M2TS      4113 (0x1011)   0x1B            AVC                                     3429,301                3 000                   1 286 038 678   7 037 552
00007.M2TS      4352 (0x1100)   0x80            LPCM            eng (English)           3429,301                2 310                   990 394 836     5 486 952



QUICK SUMMARY:
Disc Title: XTC.Oranges & Lemons.2015.BDA1080p
Disc Size: 40 267 404 994 bytes
Protection: AACS
BD-Java: Yes
Playlist: 00007.MPLS
Size: 2 426 760 576 bytes
Length: 0:57:09.426
Total Bitrate: 5,66 Mbps
Video: MPEG-4 AVC Video / 3000 kbps / 1080p / 23,976 fps / 16:9 / High Profile 4.1
Audio: English / LPCM Audio / 2.0 / 48 kHz / 2304 kbps / 24-bit
********************
PLAYLIST: 00008.MPLS
********************


Код:

                                                                                Total   Video
Title                                                           Codec   Length  Movie Size      Disc Size       Bitrate Bitrate Main Audio Track                          Secondary Audio Track
-----                                                           ------  ------- --------------  --------------  ------- ------- ------------------                        ---------------------
00008.MPLS                                                      AVC     0:47:33 1 822 190 976   40 267 404 994  5,11    2,48    LPCM 2.0 2304Kbps (48kHz/24-bit)


Код:

DISC INFO:
Disc Title:     XTC.Oranges & Lemons.2015.BDA1080p
Disc Size:      40 267 404 994 bytes
Protection:     AACS
BD-Java:        Yes
BDInfo:         0.5.8
PLAYLIST REPORT:
Name:                   00008.MPLS
Length:                 0:47:33.475 (h:m:s.ms)
Size:                   1 822 190 976 bytes
Total Bitrate:          5,11 Mbps
VIDEO:
Codec                   Bitrate             Description
-----                   -------             -----------
MPEG-4 AVC Video        2476 kbps           1080p / 23,976 fps / 16:9 / High Profile 4.1
AUDIO:
Codec                           Language        Bitrate         Description
-----                           --------        -------         -----------
LPCM Audio                      English         2304 kbps       2.0 / 48 kHz / 2304 kbps / 24-bit
FILES:
Name            Time In         Length          Size            Total Bitrate
----            -------         ------          ----            -------------
00008.M2TS      0:00:00.000     0:47:33.475     1 822 190 976   5 109
CHAPTERS:
Number          Time In         Length          Avg Video Rate  Max 1-Sec Rate  Max 1-Sec Time  Max 5-Sec Rate  Max 5-Sec Time  Max 10Sec Rate  Max 10Sec Time  Avg Frame Size  Max Frame Size  Max Frame Time
------          -------         ------          --------------  --------------  --------------  --------------  --------------  --------------  --------------  --------------  --------------  --------------
1               0:00:00.000     0:02:52.589     2 491 kbps      8 474 kbps      00:00:02.002    3 660 kbps      00:00:02.001    3 061 kbps      00:00:02.001    12 986 bytes    303 752 bytes   00:02:52.547
2               0:02:52.589     0:03:58.821     2 480 kbps      4 900 kbps      00:06:50.409    2 960 kbps      00:06:46.405    2 718 kbps      00:06:41.400    12 927 bytes    303 754 bytes   00:02:53.548
3               0:06:51.410     0:02:33.153     2 469 kbps      2 472 kbps      00:09:23.521    2 470 kbps      00:09:19.517    2 469 kbps      00:09:14.512    12 872 bytes    303 363 bytes   00:09:24.522
4               0:09:24.564     0:03:09.188     2 471 kbps      2 473 kbps      00:12:32.710    2 472 kbps      00:12:28.706    2 472 kbps      00:12:23.701    12 885 bytes    303 496 bytes   00:12:33.711
5               0:12:33.752     0:02:43.997     2 475 kbps      4 902 kbps      00:15:16.749    2 958 kbps      00:15:12.745    2 715 kbps      00:15:07.740    12 904 bytes    303 496 bytes   00:12:35.713
6               0:15:17.750     0:03:18.448     2 480 kbps      4 871 kbps      00:18:35.197    2 951 kbps      00:18:31.193    2 711 kbps      00:18:26.188    12 931 bytes    304 865 bytes   00:18:36.156
7               0:18:36.198     0:02:38.074     2 484 kbps      4 922 kbps      00:21:13.272    2 971 kbps      00:21:09.267    2 727 kbps      00:21:04.263    12 952 bytes    304 876 bytes   00:18:37.157
8               0:21:14.273     0:02:45.165     2 481 kbps      2 482 kbps      00:23:58.061    2 481 kbps      00:23:54.057    2 481 kbps      00:23:49.052    12 935 bytes    304 454 bytes   00:21:15.232
9               0:23:59.438     0:01:33.092     2 476 kbps      2 477 kbps      00:25:31.154    2 476 kbps      00:25:27.150    2 476 kbps      00:25:22.145    12 910 bytes    303 986 bytes   00:24:01.398
10              0:25:32.531     0:02:19.139     2 476 kbps      2 477 kbps      00:27:50.293    2 476 kbps      00:27:46.289    2 476 kbps      00:27:41.284    12 908 bytes    303 892 bytes   00:25:33.490
11              0:27:51.670     0:02:26.145     2 470 kbps      2 471 kbps      00:30:16.773    2 470 kbps      00:30:12.769    2 470 kbps      00:30:07.764    12 877 bytes    303 260 bytes   00:30:17.774
12              0:30:17.815     0:01:12.072     2 471 kbps      2 472 kbps      00:31:28.887    2 471 kbps      00:31:24.883    2 471 kbps      00:31:19.878    12 881 bytes    303 335 bytes   00:31:29.846
13              0:31:29.888     0:02:41.161     2 471 kbps      2 483 kbps      00:34:10.047    2 474 kbps      00:34:06.044    2 473 kbps      00:34:01.039    12 885 bytes    304 734 bytes   00:34:11.007
14              0:34:11.049     0:01:08.068     2 483 kbps      2 484 kbps      00:35:17.865    2 483 kbps      00:35:13.861    2 483 kbps      00:35:08.856    12 943 bytes    304 735 bytes   00:34:12.008
15              0:35:19.117     0:03:57.236     2 472 kbps      2 474 kbps      00:39:15.311    2 472 kbps      00:39:11.307    2 472 kbps      00:39:06.302    12 888 bytes    303 577 bytes   00:39:16.312
16              0:39:16.354     0:00:43.043     2 473 kbps      2 474 kbps      00:39:58.145    2 474 kbps      00:39:54.141    2 474 kbps      00:39:49.136    12 896 bytes    303 577 bytes   00:39:18.314
17              0:39:59.397     0:02:24.144     2 472 kbps      2 474 kbps      00:42:22.498    2 472 kbps      00:42:18.494    2 472 kbps      00:42:13.489    12 887 bytes    303 612 bytes   00:42:23.499
18              0:42:23.541     0:05:09.934     2 469 kbps      2 474 kbps      00:42:25.501    2 474 kbps      00:42:25.501    2 474 kbps      00:42:24.750    12 874 bytes    303 613 bytes   00:42:24.500
STREAM DIAGNOSTICS:
File            PID             Type            Codec           Language                Seconds                 Bitrate                 Bytes           Packets
----            ---             ----            -----           --------                --------------          --------------          -------------   -----
00008.M2TS      4113 (0x1011)   0x1B            AVC                                     2853,392                2 476                   883 018 171     4 829 359
00008.M2TS      4352 (0x1100)   0x80            LPCM            eng (English)           2853,392                2 310                   824 095 132     4 565 624



QUICK SUMMARY:
Disc Title: XTC.Oranges & Lemons.2015.BDA1080p
Disc Size: 40 267 404 994 bytes
Protection: AACS
BD-Java: Yes
Playlist: 00008.MPLS
Size: 1 822 190 976 bytes
Length: 0:47:33.475
Total Bitrate: 5,11 Mbps
Video: MPEG-4 AVC Video / 2476 kbps / 1080p / 23,976 fps / 16:9 / High Profile 4.1
Audio: English / LPCM Audio / 2.0 / 48 kHz / 2304 kbps / 24-bit
********************
PLAYLIST: 00009.MPLS
********************


Код:

                                                                                Total   Video
Title                                                           Codec   Length  Movie Size      Disc Size       Bitrate Bitrate Main Audio Track                          Secondary Audio Track
-----                                                           ------  ------- --------------  --------------  ------- ------- ------------------                        ---------------------
00009.MPLS                                                      AVC     0:41:45 1 650 214 272   40 267 404 994  5,27    2,62    LPCM 2.0 2304Kbps (48kHz/24-bit)


Код:

DISC INFO:
Disc Title:     XTC.Oranges & Lemons.2015.BDA1080p
Disc Size:      40 267 404 994 bytes
Protection:     AACS
BD-Java:        Yes
BDInfo:         0.5.8
PLAYLIST REPORT:
Name:                   00009.MPLS
Length:                 0:41:45.127 (h:m:s.ms)
Size:                   1 650 214 272 bytes
Total Bitrate:          5,27 Mbps
VIDEO:
Codec                   Bitrate             Description
-----                   -------             -----------
MPEG-4 AVC Video        2622 kbps           1080p / 23,976 fps / 16:9 / High Profile 4.1
AUDIO:
Codec                           Language        Bitrate         Description
-----                           --------        -------         -----------
LPCM Audio                      English         2304 kbps       2.0 / 48 kHz / 2304 kbps / 24-bit
FILES:
Name            Time In         Length          Size            Total Bitrate
----            -------         ------          ----            -------------
00009.M2TS      0:00:00.000     0:41:45.127     1 650 214 272   5 270
CHAPTERS:
Number          Time In         Length          Avg Video Rate  Max 1-Sec Rate  Max 1-Sec Time  Max 5-Sec Rate  Max 5-Sec Time  Max 10Sec Rate  Max 10Sec Time  Avg Frame Size  Max Frame Size  Max Frame Time
------          -------         ------          --------------  --------------  --------------  --------------  --------------  --------------  --------------  --------------  --------------  --------------
1               0:00:00.000     0:04:48.997     2 615 kbps      6 847 kbps      00:00:02.002    3 426 kbps      00:00:02.001    3 006 kbps      00:00:02.001    13 630 bytes    321 710 bytes   00:00:24.024
2               0:04:48.997     0:05:14.731     2 620 kbps      5 183 kbps      00:10:02.727    3 129 kbps      00:09:58.723    2 872 kbps      00:09:53.718    13 662 bytes    321 906 bytes   00:10:03.686
3               0:10:03.728     0:03:15.028     2 619 kbps      5 196 kbps      00:13:17.755    3 133 kbps      00:13:13.751    2 875 kbps      00:13:08.746    13 657 bytes    322 336 bytes   00:13:18.714
4               0:13:18.756     0:02:43.621     2 630 kbps      5 200 kbps      00:16:01.377    3 137 kbps      00:15:57.373    2 879 kbps      00:15:52.368    13 710 bytes    322 534 bytes   00:16:02.336
5               0:16:02.378     0:06:47.615     2 627 kbps      5 131 kbps      00:22:48.992    3 124 kbps      00:22:44.988    2 873 kbps      00:22:39.983    13 697 bytes    322 545 bytes   00:16:03.337
6               0:22:49.993     0:05:49.640     2 624 kbps      5 167 kbps      00:28:38.633    3 128 kbps      00:28:34.629    2 873 kbps      00:28:29.624    13 679 bytes    322 406 bytes   00:28:39.592
7               0:28:39.634     0:06:21.464     2 627 kbps      4 995 kbps      00:35:00.098    3 096 kbps      00:34:56.094    2 859 kbps      00:34:51.089    13 695 bytes    322 417 bytes   00:28:40.593
8               0:35:01.099     0:03:24.203     2 617 kbps      2 619 kbps      00:38:24.301    2 617 kbps      00:38:20.297    2 617 kbps      00:38:15.293    13 641 bytes    322 047 bytes   00:38:25.261
9               0:38:25.303     0:03:19.824     2 610 kbps      2 618 kbps      00:41:43.667    2 618 kbps      00:41:39.663    2 618 kbps      00:41:34.658    13 615 bytes    322 048 bytes   00:38:26.262
STREAM DIAGNOSTICS:
File            PID             Type            Codec           Language                Seconds                 Bitrate                 Bytes           Packets
----            ---             ----            -----           --------                --------------          --------------          -------------   -----
00009.M2TS      4113 (0x1011)   0x1B            AVC                                     2505,044                2 622                   820 967 702     4 502 726
00009.M2TS      4352 (0x1100)   0x80            LPCM            eng (English)           2505,044                2 310                   723 484 432     4 008 224



QUICK SUMMARY:
Disc Title: XTC.Oranges & Lemons.2015.BDA1080p
Disc Size: 40 267 404 994 bytes
Protection: AACS
BD-Java: Yes
Playlist: 00009.MPLS
Size: 1 650 214 272 bytes
Length: 0:41:45.127
Total Bitrate: 5,27 Mbps
Video: MPEG-4 AVC Video / 2622 kbps / 1080p / 23,976 fps / 16:9 / High Profile 4.1
Audio: English / LPCM Audio / 2.0 / 48 kHz / 2304 kbps / 24-bit
********************
PLAYLIST: 00010.MPLS
********************


Код:

                                                                                Total   Video
Title                                                           Codec   Length  Movie Size      Disc Size       Bitrate Bitrate Main Audio Track                          Secondary Audio Track
-----                                                           ------  ------- --------------  --------------  ------- ------- ------------------                        ---------------------
00010.MPLS                                                      AVC     0:37:32 1 593 818 496   40 267 404 994  5,66    3,00    LPCM 2.0 2304Kbps (48kHz/24-bit)


Код:

DISC INFO:
Disc Title:     XTC.Oranges & Lemons.2015.BDA1080p
Disc Size:      40 267 404 994 bytes
Protection:     AACS
BD-Java:        Yes
BDInfo:         0.5.8
PLAYLIST REPORT:
Name:                   00010.MPLS
Length:                 0:37:32.750 (h:m:s.ms)
Size:                   1 593 818 496 bytes
Total Bitrate:          5,66 Mbps
VIDEO:
Codec                   Bitrate             Description
-----                   -------             -----------
MPEG-4 AVC Video        3000 kbps           1080p / 23,976 fps / 16:9 / High Profile 4.1
AUDIO:
Codec                           Language        Bitrate         Description
-----                           --------        -------         -----------
LPCM Audio                      English         2304 kbps       2.0 / 48 kHz / 2304 kbps / 24-bit
FILES:
Name            Time In         Length          Size            Total Bitrate
----            -------         ------          ----            -------------
00010.M2TS      0:00:00.000     0:37:32.750     1 593 818 496   5 660
CHAPTERS:
Number          Time In         Length          Avg Video Rate  Max 1-Sec Rate  Max 1-Sec Time  Max 5-Sec Rate  Max 5-Sec Time  Max 10Sec Rate  Max 10Sec Time  Avg Frame Size  Max Frame Size  Max Frame Time
------          -------         ------          --------------  --------------  --------------  --------------  --------------  --------------  --------------  --------------  --------------  --------------
1               0:00:00.000     0:29:18.757     2 999 kbps      9 179 kbps      00:00:02.002    4 221 kbps      00:00:02.001    3 605 kbps      00:00:02.001    15 636 bytes    370 722 bytes   00:00:52.052
2               0:29:18.757     0:06:59.710     3 004 kbps      5 659 kbps      00:36:17.466    3 534 kbps      00:36:13.462    3 268 kbps      00:36:08.457    15 664 bytes    370 968 bytes   00:36:18.426
3               0:36:18.467     0:00:36.745     3 026 kbps      5 903 kbps      00:36:54.212    3 585 kbps      00:36:50.208    3 295 kbps      00:36:45.203    15 778 bytes    371 248 bytes   00:36:53.461
4               0:36:55.213     0:00:37.537     2 963 kbps      3 017 kbps      00:37:30.790    3 011 kbps      00:37:26.786    3 009 kbps      00:37:21.781    15 501 bytes    372 699 bytes   00:37:31.207
STREAM DIAGNOSTICS:
File            PID             Type            Codec           Language                Seconds                 Bitrate                 Bytes           Packets
----            ---             ----            -----           --------                --------------          --------------          -------------   -----
00010.M2TS      4113 (0x1011)   0x1B            AVC                                     2252,625                3 000                   844 762 136     4 621 235
00010.M2TS      4352 (0x1100)   0x80            LPCM            eng (English)           2252,625                2 311                   650 597 088     3 604 416



QUICK SUMMARY:
Disc Title: XTC.Oranges & Lemons.2015.BDA1080p
Disc Size: 40 267 404 994 bytes
Protection: AACS
BD-Java: Yes
Playlist: 00010.MPLS
Size: 1 593 818 496 bytes
Length: 0:37:32.750
Total Bitrate: 5,66 Mbps
Video: MPEG-4 AVC Video / 3000 kbps / 1080p / 23,976 fps / 16:9 / High Profile 4.1
Audio: English / LPCM Audio / 2.0 / 48 kHz / 2304 kbps / 24-bit
********************
PLAYLIST: 00011.MPLS
********************


Код:

                                                                                Total   Video
Title                                                           Codec   Length  Movie Size      Disc Size       Bitrate Bitrate Main Audio Track                          Secondary Audio Track
-----                                                           ------  ------- --------------  --------------  ------- ------- ------------------                        ---------------------
00011.MPLS                                                      AVC     0:28:12 1 182 834 048   40 267 404 994  5,59    2,13    LPCM 2.0 2304Kbps (48kHz/24-bit)


Код:

DISC INFO:
Disc Title:     XTC.Oranges & Lemons.2015.BDA1080p
Disc Size:      40 267 404 994 bytes
Protection:     AACS
BD-Java:        Yes
BDInfo:         0.5.8
PLAYLIST REPORT:
Name:                   00011.MPLS
Length:                 0:28:12.273 (h:m:s.ms)
Size:                   1 182 834 048 bytes
Total Bitrate:          5,59 Mbps
VIDEO:
Codec                   Bitrate             Description
-----                   -------             -----------
MPEG-4 AVC Video        2133 kbps           1080p / 23,976 fps / 16:9 / High Profile 4.1
AUDIO:
Codec                           Language        Bitrate         Description
-----                           --------        -------         -----------
LPCM Audio                      English         2304 kbps       2.0 / 48 kHz / 2304 kbps / 24-bit
FILES:
Name            Time In         Length          Size            Total Bitrate
----            -------         ------          ----            -------------
00011.M2TS      0:00:00.000     0:28:12.273     1 182 834 048   5 592
CHAPTERS:
Number          Time In         Length          Avg Video Rate  Max 1-Sec Rate  Max 1-Sec Time  Max 5-Sec Rate  Max 5-Sec Time  Max 10Sec Rate  Max 10Sec Time  Avg Frame Size  Max Frame Size  Max Frame Time
------          -------         ------          --------------  --------------  --------------  --------------  --------------  --------------  --------------  --------------  --------------  --------------
1               0:00:00.000     0:02:27.772     2 142 kbps      8 365 kbps      00:00:02.002    3 368 kbps      00:00:02.001    2 744 kbps      00:00:02.001    11 164 bytes    259 252 bytes   00:02:27.730
2               0:02:27.772     0:02:40.326     2 141 kbps      4 148 kbps      00:05:07.098    2 534 kbps      00:05:03.094    2 332 kbps      00:04:58.089    11 162 bytes    259 812 bytes   00:05:08.057
3               0:05:08.099     0:04:09.457     2 142 kbps      4 168 kbps      00:09:16.556    2 542 kbps      00:09:12.552    2 339 kbps      00:09:07.547    11 170 bytes    259 823 bytes   00:05:09.058
4               0:09:17.557     0:06:30.389     2 129 kbps      2 130 kbps      00:15:46.904    2 129 kbps      00:15:42.900    2 129 kbps      00:15:37.895    11 100 bytes    259 329 bytes   00:15:47.905
5               0:15:47.946     0:05:08.308     2 130 kbps      2 131 kbps      00:20:55.254    2 130 kbps      00:20:51.250    2 130 kbps      00:20:46.245    11 106 bytes    259 519 bytes   00:20:56.213
6               0:20:56.255     0:07:16.018     2 128 kbps      2 130 kbps      00:21:00.509    2 130 kbps      00:21:00.509    2 130 kbps      00:21:00.509    11 095 bytes    259 520 bytes   00:20:57.214
STREAM DIAGNOSTICS:
File            PID             Type            Codec           Language                Seconds                 Bitrate                 Bytes           Packets
----            ---             ----            -----           --------                --------------          --------------          -------------   -----
00011.M2TS      4113 (0x1011)   0x1B            AVC                                     1692,191                2 133                   451 231 899     2 480 707
00011.M2TS      4352 (0x1100)   0x80            LPCM            eng (English)           1692,191                3 076                   650 597 088     3 604 416



QUICK SUMMARY:
Disc Title: XTC.Oranges & Lemons.2015.BDA1080p
Disc Size: 40 267 404 994 bytes
Protection: AACS
BD-Java: Yes
Playlist: 00011.MPLS
Size: 1 182 834 048 bytes
Length: 0:28:12.273
Total Bitrate: 5,59 Mbps
Video: MPEG-4 AVC Video / 2133 kbps / 1080p / 23,976 fps / 16:9 / High Profile 4.1
Audio: English / LPCM Audio / 2.0 / 48 kHz / 2304 kbps / 24-bit
********************
PLAYLIST: 00016.MPLS
********************


Код:

                                                                                Total   Video
Title                                                           Codec   Length  Movie Size      Disc Size       Bitrate Bitrate Main Audio Track                          Secondary Audio Track
-----                                                           ------  ------- --------------  --------------  ------- ------- ------------------                        ---------------------
00016.MPLS                                                      AVC     0:09:50 1 342 547 328   40 267 404 994  18,19   15,00   LPCM 2.0 2304Kbps (48kHz/24-bit)


Код:

DISC INFO:
Disc Title:     XTC.Oranges & Lemons.2015.BDA1080p
Disc Size:      40 267 404 994 bytes
Protection:     AACS
BD-Java:        Yes
BDInfo:         0.5.8
PLAYLIST REPORT:
Name:                   00016.MPLS
Length:                 0:09:50.589 (h:m:s.ms)
Size:                   1 342 547 328 bytes
Total Bitrate:          18,19 Mbps
VIDEO:
Codec                   Bitrate             Description
-----                   -------             -----------
MPEG-4 AVC Video        15002 kbps          1080p / 23,976 fps / 16:9 / High Profile 4.1
AUDIO:
Codec                           Language        Bitrate         Description
-----                           --------        -------         -----------
LPCM Audio                      English         2304 kbps       2.0 / 48 kHz / 2304 kbps / 24-bit
FILES:
Name            Time In         Length          Size            Total Bitrate
----            -------         ------          ----            -------------
00016.M2TS      0:00:00.000     0:09:50.589     1 342 547 328   18 185
CHAPTERS:
Number          Time In         Length          Avg Video Rate  Max 1-Sec Rate  Max 1-Sec Time  Max 5-Sec Rate  Max 5-Sec Time  Max 10Sec Rate  Max 10Sec Time  Avg Frame Size  Max Frame Size  Max Frame Time
------          -------         ------          --------------  --------------  --------------  --------------  --------------  --------------  --------------  --------------  --------------  --------------
1               0:00:00.000     0:09:50.589     15 003 kbps     19 997 kbps     00:09:37.994    19 661 kbps     00:09:35.449    17 803 kbps     00:09:30.403    78 223 bytes    205 898 bytes   00:09:39.704
STREAM DIAGNOSTICS:
File            PID             Type            Codec           Language                Seconds                 Bitrate                 Bytes           Packets
----            ---             ----            -----           --------                --------------          --------------          -------------   -----
00016.M2TS      4113 (0x1011)   0x1B            AVC                                     590,465                 15 006                  1 107 559 952   6 027 708
00016.M2TS      4352 (0x1100)   0x80            LPCM            eng (English)           590,465                 2 311                   170 562 392     944 944



QUICK SUMMARY:
Disc Title: XTC.Oranges & Lemons.2015.BDA1080p
Disc Size: 40 267 404 994 bytes
Protection: AACS
BD-Java: Yes
Playlist: 00016.MPLS
Size: 1 342 547 328 bytes
Length: 0:09:50.589
Total Bitrate: 18,19 Mbps
Video: MPEG-4 AVC Video / 15002 kbps / 1080p / 23,976 fps / 16:9 / High Profile 4.1
Audio: English / LPCM Audio / 2.0 / 48 kHz / 2304 kbps / 24-bit
********************
PLAYLIST: 00014.MPLS
********************


Код:

                                                                                Total   Video
Title                                                           Codec   Length  Movie Size      Disc Size       Bitrate Bitrate Main Audio Track                          Secondary Audio Track
-----                                                           ------  ------- --------------  --------------  ------- ------- ------------------                        ---------------------
00014.MPLS                                                      AVC     0:04:19 589 176 192     40 267 404 994  18,19   15,00   LPCM 2.0 2304Kbps (48kHz/24-bit)


Код:

DISC INFO:
Disc Title:     XTC.Oranges & Lemons.2015.BDA1080p
Disc Size:      40 267 404 994 bytes
Protection:     AACS
BD-Java:        Yes
BDInfo:         0.5.8
PLAYLIST REPORT:
Name:                   00014.MPLS
Length:                 0:04:19.133 (h:m:s.ms)
Size:                   589 176 192 bytes
Total Bitrate:          18,19 Mbps
VIDEO:
Codec                   Bitrate             Description
-----                   -------             -----------
MPEG-4 AVC Video        15003 kbps          1080p / 23,976 fps / 16:9 / High Profile 4.1
AUDIO:
Codec                           Language        Bitrate         Description
-----                           --------        -------         -----------
LPCM Audio                      English         2304 kbps       2.0 / 48 kHz / 2304 kbps / 24-bit
FILES:
Name            Time In         Length          Size            Total Bitrate
----            -------         ------          ----            -------------
00014.M2TS      0:00:00.000     0:04:19.133     589 176 192     18 186
CHAPTERS:
Number          Time In         Length          Avg Video Rate  Max 1-Sec Rate  Max 1-Sec Time  Max 5-Sec Rate  Max 5-Sec Time  Max 10Sec Rate  Max 10Sec Time  Avg Frame Size  Max Frame Size  Max Frame Time
------          -------         ------          --------------  --------------  --------------  --------------  --------------  --------------  --------------  --------------  --------------  --------------
1               0:00:00.000     0:04:19.133     15 006 kbps     29 712 kbps     00:00:03.878    21 513 kbps     00:00:03.878    20 978 kbps     00:03:59.489    78 259 bytes    260 727 bytes   00:00:06.923
STREAM DIAGNOSTICS:
File            PID             Type            Codec           Language                Seconds                 Bitrate                 Bytes           Packets
----            ---             ----            -----           --------                --------------          --------------          -------------   -----
00014.M2TS      4113 (0x1011)   0x1B            AVC                                     259,050                 15 011                  486 065 438     2 645 333
00014.M2TS      4352 (0x1100)   0x80            LPCM            eng (English)           259,050                 2 311                   74 838 188      414 616



QUICK SUMMARY:
Disc Title: XTC.Oranges & Lemons.2015.BDA1080p
Disc Size: 40 267 404 994 bytes
Protection: AACS
BD-Java: Yes
Playlist: 00014.MPLS
Size: 589 176 192 bytes
Length: 0:04:19.133
Total Bitrate: 18,19 Mbps
Video: MPEG-4 AVC Video / 15003 kbps / 1080p / 23,976 fps / 16:9 / High Profile 4.1
Audio: English / LPCM Audio / 2.0 / 48 kHz / 2304 kbps / 24-bit
********************
PLAYLIST: 00015.MPLS
********************


Код:

                                                                                Total   Video
Title                                                           Codec   Length  Movie Size      Disc Size       Bitrate Bitrate Main Audio Track                          Secondary Audio Track
-----                                                           ------  ------- --------------  --------------  ------- ------- ------------------                        ---------------------
00015.MPLS                                                      AVC     0:03:43 508 118 400     40 267 404 994  18,21   15,02   LPCM 2.0 2304Kbps (48kHz/24-bit)


Код:

DISC INFO:
Disc Title:     XTC.Oranges & Lemons.2015.BDA1080p
Disc Size:      40 267 404 994 bytes
Protection:     AACS
BD-Java:        Yes
BDInfo:         0.5.8
PLAYLIST REPORT:
Name:                   00015.MPLS
Length:                 0:03:43.222 (h:m:s.ms)
Size:                   508 118 400 bytes
Total Bitrate:          18,21 Mbps
VIDEO:
Codec                   Bitrate             Description
-----                   -------             -----------
MPEG-4 AVC Video        15023 kbps          1080p / 23,976 fps / 16:9 / High Profile 4.1
AUDIO:
Codec                           Language        Bitrate         Description
-----                           --------        -------         -----------
LPCM Audio                      English         2304 kbps       2.0 / 48 kHz / 2304 kbps / 24-bit
FILES:
Name            Time In         Length          Size            Total Bitrate
----            -------         ------          ----            -------------
00015.M2TS      0:00:00.000     0:03:43.222     508 118 400     18 207
CHAPTERS:
Number          Time In         Length          Avg Video Rate  Max 1-Sec Rate  Max 1-Sec Time  Max 5-Sec Rate  Max 5-Sec Time  Max 10Sec Rate  Max 10Sec Time  Avg Frame Size  Max Frame Size  Max Frame Time
------          -------         ------          --------------  --------------  --------------  --------------  --------------  --------------  --------------  --------------  --------------  --------------
1               0:00:00.000     0:03:43.222     15 026 kbps     19 993 kbps     00:00:03.920    17 191 kbps     00:01:57.158    16 769 kbps     00:03:10.732    78 354 bytes    190 131 bytes   00:00:50.300
STREAM DIAGNOSTICS:
File            PID             Type            Codec           Language                Seconds                 Bitrate                 Bytes           Packets
----            ---             ----            -----           --------                --------------          --------------          -------------   -----
00015.M2TS      4113 (0x1011)   0x1B            AVC                                     223,140                 15 032                  419 275 689     2 281 803
00015.M2TS      4352 (0x1100)   0x80            LPCM            eng (English)           223,140                 2 311                   64 467 380      357 160



QUICK SUMMARY:
Disc Title: XTC.Oranges & Lemons.2015.BDA1080p
Disc Size: 40 267 404 994 bytes
Protection: AACS
BD-Java: Yes
Playlist: 00015.MPLS
Size: 508 118 400 bytes
Length: 0:03:43.222
Total Bitrate: 18,21 Mbps
Video: MPEG-4 AVC Video / 15023 kbps / 1080p / 23,976 fps / 16:9 / High Profile 4.1
Audio: English / LPCM Audio / 2.0 / 48 kHz / 2304 kbps / 24-bit
********************
PLAYLIST: 00013.MPLS
********************


Код:

                                                                                Total   Video
Title                                                           Codec   Length  Movie Size      Disc Size       Bitrate Bitrate Main Audio Track                          Secondary Audio Track
-----                                                           ------  ------- --------------  --------------  ------- ------- ------------------                        ---------------------
00013.MPLS                                                      AVC     0:03:42 504 794 496     40 267 404 994  18,17   14,99   LPCM 2.0 2304Kbps (48kHz/24-bit)


Код:

DISC INFO:
Disc Title:     XTC.Oranges & Lemons.2015.BDA1080p
Disc Size:      40 267 404 994 bytes
Protection:     AACS
BD-Java:        Yes
BDInfo:         0.5.8
PLAYLIST REPORT:
Name:                   00013.MPLS
Length:                 0:03:42.222 (h:m:s.ms)
Size:                   504 794 496 bytes
Total Bitrate:          18,17 Mbps
VIDEO:
Codec                   Bitrate             Description
-----                   -------             -----------
MPEG-4 AVC Video        14987 kbps          1080p / 23,976 fps / 16:9 / High Profile 4.1
AUDIO:
Codec                           Language        Bitrate         Description
-----                           --------        -------         -----------
LPCM Audio                      English         2304 kbps       2.0 / 48 kHz / 2304 kbps / 24-bit
FILES:
Name            Time In         Length          Size            Total Bitrate
----            -------         ------          ----            -------------
00013.M2TS      0:00:00.000     0:03:42.222     504 794 496     18 169
CHAPTERS:
Number          Time In         Length          Avg Video Rate  Max 1-Sec Rate  Max 1-Sec Time  Max 5-Sec Rate  Max 5-Sec Time  Max 10Sec Rate  Max 10Sec Time  Avg Frame Size  Max Frame Size  Max Frame Time
------          -------         ------          --------------  --------------  --------------  --------------  --------------  --------------  --------------  --------------  --------------  --------------
1               0:00:00.000     0:03:42.222     14 990 kbps     24 623 kbps     00:00:03.169    18 901 kbps     00:02:58.052    18 727 kbps     00:02:55.049    78 180 bytes    188 182 bytes   00:03:19.115
STREAM DIAGNOSTICS:
File            PID             Type            Codec           Language                Seconds                 Bitrate                 Bytes           Packets
----            ---             ----            -----           --------                --------------          --------------          -------------   -----
00013.M2TS      4113 (0x1011)   0x1B            AVC                                     222,097                 14 998                  416 386 263     2 266 125
00013.M2TS      4352 (0x1100)   0x80            LPCM            eng (English)           222,097                 2 312                   64 178 580      355 560



QUICK SUMMARY:
Disc Title: XTC.Oranges & Lemons.2015.BDA1080p
Disc Size: 40 267 404 994 bytes
Protection: AACS
BD-Java: Yes
Playlist: 00013.MPLS
Size: 504 794 496 bytes
Length: 0:03:42.222
Total Bitrate: 18,17 Mbps
Video: MPEG-4 AVC Video / 14987 kbps / 1080p / 23,976 fps / 16:9 / High Profile 4.1
Audio: English / LPCM Audio / 2.0 / 48 kHz / 2304 kbps / 24-bit
********************
PLAYLIST: 00012.MPLS
********************


Код:

                                                                                Total   Video
Title                                                           Codec   Length  Movie Size      Disc Size       Bitrate Bitrate Main Audio Track                          Secondary Audio Track
-----                                                           ------  ------- --------------  --------------  ------- ------- ------------------                        ---------------------
00012.MPLS                                                      AVC     0:03:41 503 203 200     40 267 404 994  18,19   15,00   LPCM 2.0 2304Kbps (48kHz/24-bit)


Код:

DISC INFO:
Disc Title:     XTC.Oranges & Lemons.2015.BDA1080p
Disc Size:      40 267 404 994 bytes
Protection:     AACS
BD-Java:        Yes
BDInfo:         0.5.8
PLAYLIST REPORT:
Name:                   00012.MPLS
Length:                 0:03:41.304 (h:m:s.ms)
Size:                   503 203 200 bytes
Total Bitrate:          18,19 Mbps
VIDEO:
Codec                   Bitrate             Description
-----                   -------             -----------
MPEG-4 AVC Video        15004 kbps          1080p / 23,976 fps / 16:9 / High Profile 4.1
AUDIO:
Codec                           Language        Bitrate         Description
-----                           --------        -------         -----------
LPCM Audio                      English         2304 kbps       2.0 / 48 kHz / 2304 kbps / 24-bit
FILES:
Name            Time In         Length          Size            Total Bitrate
----            -------         ------          ----            -------------
00012.M2TS      0:00:00.000     0:03:41.304     503 203 200     18 187
CHAPTERS:
Number          Time In         Length          Avg Video Rate  Max 1-Sec Rate  Max 1-Sec Time  Max 5-Sec Rate  Max 5-Sec Time  Max 10Sec Rate  Max 10Sec Time  Avg Frame Size  Max Frame Size  Max Frame Time
------          -------         ------          --------------  --------------  --------------  --------------  --------------  --------------  --------------  --------------  --------------  --------------
1               0:00:00.000     0:03:41.304     15 007 kbps     24 199 kbps     00:00:03.461    17 814 kbps     00:01:58.743    17 455 kbps     00:01:51.027    78 269 bytes    200 764 bytes   00:01:19.412
STREAM DIAGNOSTICS:
File            PID             Type            Codec           Language                Seconds                 Bitrate                 Bytes           Packets
----            ---             ----            -----           --------                --------------          --------------          -------------   -----
00012.M2TS      4113 (0x1011)   0x1B            AVC                                     221,221                 15 013                  415 140 114     2 259 341
00012.M2TS      4352 (0x1100)   0x80            LPCM            eng (English)           221,221                 2 311                   63 912 884      354 088



QUICK SUMMARY:
Disc Title: XTC.Oranges & Lemons.2015.BDA1080p
Disc Size: 40 267 404 994 bytes
Protection: AACS
BD-Java: Yes
Playlist: 00012.MPLS
Size: 503 203 200 bytes
Length: 0:03:41.304
Total Bitrate: 18,19 Mbps
Video: MPEG-4 AVC Video / 15004 kbps / 1080p / 23,976 fps / 16:9 / High Profile 4.1
Audio: English / LPCM Audio / 2.0 / 48 kHz / 2304 kbps / 24-bit
********************
PLAYLIST: 00017.MPLS
********************


Код:

                                                                                Total   Video
Title                                                           Codec   Length  Movie Size      Disc Size       Bitrate Bitrate Main Audio Track                          Secondary Audio Track
-----                                                           ------  ------- --------------  --------------  ------- ------- ------------------                        ---------------------
00017.MPLS                                                      AVC     0:03:01 164 785 536     40 267 404 994  7,27    2,23    LPCM 2.0 4608Kbps (96kHz/24-bit)


Код:

DISC INFO:
Disc Title:     XTC.Oranges & Lemons.2015.BDA1080p
Disc Size:      40 267 404 994 bytes
Protection:     AACS
BD-Java:        Yes
BDInfo:         0.5.8
PLAYLIST REPORT:
Name:                   00017.MPLS
Length:                 0:03:01.431 (h:m:s.ms)
Size:                   164 785 536 bytes
Total Bitrate:          7,27 Mbps
VIDEO:
Codec                   Bitrate             Description
-----                   -------             -----------
MPEG-4 AVC Video        2229 kbps           1080p / 23,976 fps / 16:9 / High Profile 4.1
AUDIO:
Codec                           Language        Bitrate         Description
-----                           --------        -------         -----------
LPCM Audio                      English         4608 kbps       2.0 / 96 kHz / 4608 kbps / 24-bit
FILES:
Name            Time In         Length          Size            Total Bitrate
----            -------         ------          ----            -------------
00017.M2TS      0:00:00.000     0:03:01.431     164 785 536     7 264
CHAPTERS:
Number          Time In         Length          Avg Video Rate  Max 1-Sec Rate  Max 1-Sec Time  Max 5-Sec Rate  Max 5-Sec Time  Max 10Sec Rate  Max 10Sec Time  Avg Frame Size  Max Frame Size  Max Frame Time
------          -------         ------          --------------  --------------  --------------  --------------  --------------  --------------  --------------  --------------  --------------  --------------
1               0:00:00.000     0:03:01.431     2 230 kbps      8 547 kbps      00:00:01.000    3 475 kbps      00:00:01.000    2 841 kbps      00:00:01.000    11 627 bytes    268 550 bytes   00:00:02.001
STREAM DIAGNOSTICS:
File            PID             Type            Codec           Language                Seconds                 Bitrate                 Bytes           Packets
----            ---             ----            -----           --------                --------------          --------------          -------------   -----
00017.M2TS      4113 (0x1011)   0x1B            AVC                                     181,348                 2 231                   50 566 433      277 958
00017.M2TS      4352 (0x1100)   0x80            LPCM            eng (English)           181,348                 4 566                   103 503 876     574 224



QUICK SUMMARY:
Disc Title: XTC.Oranges & Lemons.2015.BDA1080p
Disc Size: 40 267 404 994 bytes
Protection: AACS
BD-Java: Yes
Playlist: 00017.MPLS
Size: 164 785 536 bytes
Length: 0:03:01.431
Total Bitrate: 7,27 Mbps
Video: MPEG-4 AVC Video / 2229 kbps / 1080p / 23,976 fps / 16:9 / High Profile 4.1
Audio: English / LPCM Audio / 2.0 / 96 kHz / 4608 kbps / 24-bit
********************
PLAYLIST: 00001.MPLS
********************


Код:

                                                                                Total   Video
Title                                                           Codec   Length  Movie Size      Disc Size       Bitrate Bitrate Main Audio Track                          Secondary Audio Track
-----                                                           ------  ------- --------------  --------------  ------- ------- ------------------                        ---------------------
00001.MPLS                                                      AVC     0:00:30 30 238 080      40 267 404 994  8,06    7,64


Код:

DISC INFO:
Disc Title:     XTC.Oranges & Lemons.2015.BDA1080p
Disc Size:      40 267 404 994 bytes
Protection:     AACS
BD-Java:        Yes
BDInfo:         0.5.8
PLAYLIST REPORT:
Name:                   00001.MPLS
Length:                 0:00:30.029 (h:m:s.ms)
Size:                   30 238 080 bytes
Total Bitrate:          8,06 Mbps
VIDEO:
Codec                   Bitrate             Description
-----                   -------             -----------
MPEG-4 AVC Video        7640 kbps           1080p / 23,976 fps / 16:9 / High Profile 4.1
FILES:
Name            Time In         Length          Size            Total Bitrate
----            -------         ------          ----            -------------
00001.M2TS      0:00:00.000     0:00:30.029     30 238 080      8 044
CHAPTERS:
Number          Time In         Length          Avg Video Rate  Max 1-Sec Rate  Max 1-Sec Time  Max 5-Sec Rate  Max 5-Sec Time  Max 10Sec Rate  Max 10Sec Time  Avg Frame Size  Max Frame Size  Max Frame Time
------          -------         ------          --------------  --------------  --------------  --------------  --------------  --------------  --------------  --------------  --------------  --------------
1               0:00:00.000     0:00:05.046     6 316 kbps      22 851 kbps     00:00:03.003    6 368 kbps      00:00:00.041    0 kbps          00:00:00.000    32 658 bytes    787 395 bytes   00:00:05.004
2               0:00:05.046     0:00:23.023     8 209 kbps      8 294 kbps      00:00:27.068    8 273 kbps      00:00:23.064    8 269 kbps      00:00:18.059    42 798 bytes    791 110 bytes   00:00:14.014
3               0:00:28.069     0:00:01.960     4 522 kbps      8 257 kbps      00:00:28.278    0 kbps          00:00:00.000    0 kbps          00:00:00.000    24 625 bytes    790 675 bytes   00:00:29.028
STREAM DIAGNOSTICS:
File            PID             Type            Codec           Language                Seconds                 Bitrate                 Bytes           Packets
----            ---             ----            -----           --------                --------------          --------------          -------------   -----
00001.M2TS      4113 (0x1011)   0x1B            AVC                                     29,947                  7 672                   28 718 340      156 470



QUICK SUMMARY:
Disc Title: XTC.Oranges & Lemons.2015.BDA1080p
Disc Size: 40 267 404 994 bytes
Protection: AACS
BD-Java: Yes
Playlist: 00001.MPLS
Size: 30 238 080 bytes
Length: 0:00:30.029
Total Bitrate: 8,06 Mbps
Video: MPEG-4 AVC Video / 7640 kbps / 1080p / 23,976 fps / 16:9 / High Profile 4.1
********************
PLAYLIST: 00002.MPLS
********************


Код:

                                                                                Total   Video
Title                                                           Codec   Length  Movie Size      Disc Size       Bitrate Bitrate Main Audio Track                          Secondary Audio Track
-----                                                           ------  ------- --------------  --------------  ------- ------- ------------------                        ---------------------
00002.MPLS                                                      AVC     0:00:30 13 065 600      40 267 404 994  3,48    3,26


Код:

DISC INFO:
Disc Title:     XTC.Oranges & Lemons.2015.BDA1080p
Disc Size:      40 267 404 994 bytes
Protection:     AACS
BD-Java:        Yes
BDInfo:         0.5.8
PLAYLIST REPORT:
Name:                   00002.MPLS
Length:                 0:00:30.029 (h:m:s.ms)
Size:                   13 065 600 bytes
Total Bitrate:          3,48 Mbps
VIDEO:
Codec                   Bitrate             Description
-----                   -------             -----------
MPEG-4 AVC Video        3261 kbps           1080p / 23,976 fps / 16:9 / High Profile 4.1
FILES:
Name            Time In         Length          Size            Total Bitrate
----            -------         ------          ----            -------------
00002.M2TS      0:00:00.000     0:00:30.029     13 065 600      3 476
CHAPTERS:
Number          Time In         Length          Avg Video Rate  Max 1-Sec Rate  Max 1-Sec Time  Max 5-Sec Rate  Max 5-Sec Time  Max 10Sec Rate  Max 10Sec Time  Avg Frame Size  Max Frame Size  Max Frame Time
------          -------         ------          --------------  --------------  --------------  --------------  --------------  --------------  --------------  --------------  --------------  --------------
1               0:00:00.000     0:00:05.046     3 942 kbps      16 295 kbps     00:00:03.003    3 974 kbps      00:00:00.041    0 kbps          00:00:00.000    20 384 bytes    400 916 bytes   00:00:05.004
2               0:00:05.046     0:00:23.023     3 252 kbps      3 252 kbps      00:00:05.046    3 252 kbps      00:00:05.046    3 252 kbps      00:00:05.046    16 953 bytes    400 916 bytes   00:00:06.005
3               0:00:28.069     0:00:01.960     1 679 kbps      3 251 kbps      00:00:28.737    0 kbps          00:00:00.000    0 kbps          00:00:00.000    9 145 bytes     400 916 bytes   00:00:29.028
STREAM DIAGNOSTICS:
File            PID             Type            Codec           Language                Seconds                 Bitrate                 Bytes           Packets
----            ---             ----            -----           --------                --------------          --------------          -------------   -----
00002.M2TS      4113 (0x1011)   0x1B            AVC                                     29,947                  3 275                   12 257 958      67 034



QUICK SUMMARY:
Disc Title: XTC.Oranges & Lemons.2015.BDA1080p
Disc Size: 40 267 404 994 bytes
Protection: AACS
BD-Java: Yes
Playlist: 00002.MPLS
Size: 13 065 600 bytes
Length: 0:00:30.029
Total Bitrate: 3,48 Mbps
Video: MPEG-4 AVC Video / 3261 kbps / 1080p / 23,976 fps / 16:9 / High Profile 4.1
********************
PLAYLIST: 00003.MPLS
********************


Код:

                                                                                Total   Video
Title                                                           Codec   Length  Movie Size      Disc Size       Bitrate Bitrate Main Audio Track                          Secondary Audio Track
-----                                                           ------  ------- --------------  --------------  ------- ------- ------------------                        ---------------------
00003.MPLS                                                      AVC     0:00:30 14 871 936      40 267 404 994  3,96    3,72


Код:

DISC INFO:
Disc Title:     XTC.Oranges & Lemons.2015.BDA1080p
Disc Size:      40 267 404 994 bytes
Protection:     AACS
BD-Java:        Yes
BDInfo:         0.5.8
PLAYLIST REPORT:
Name:                   00003.MPLS
Length:                 0:00:30.029 (h:m:s.ms)
Size:                   14 871 936 bytes
Total Bitrate:          3,96 Mbps
VIDEO:
Codec                   Bitrate             Description
-----                   -------             -----------
MPEG-4 AVC Video        3721 kbps           1080p / 23,976 fps / 16:9 / High Profile 4.1
FILES:
Name            Time In         Length          Size            Total Bitrate
----            -------         ------          ----            -------------
00003.M2TS      0:00:00.000     0:00:30.029     14 871 936      3 956
CHAPTERS:
Number          Time In         Length          Avg Video Rate  Max 1-Sec Rate  Max 1-Sec Time  Max 5-Sec Rate  Max 5-Sec Time  Max 10Sec Rate  Max 10Sec Time  Avg Frame Size  Max Frame Size  Max Frame Time
------          -------         ------          --------------  --------------  --------------  --------------  --------------  --------------  --------------  --------------  --------------  --------------
1               0:00:00.000     0:00:05.046     3 698 kbps      6 982 kbps      00:00:04.045    3 728 kbps      00:00:00.041    0 kbps          00:00:00.000    19 121 bytes    479 522 bytes   00:00:02.961
2               0:00:05.046     0:00:23.023     3 880 kbps      3 880 kbps      00:00:05.046    3 880 kbps      00:00:05.046    3 880 kbps      00:00:05.046    20 226 bytes    479 522 bytes   00:00:06.005
3               0:00:28.069     0:00:01.960     2 000 kbps      3 879 kbps      00:00:28.737    0 kbps          00:00:00.000    0 kbps          00:00:00.000    10 889 bytes    479 520 bytes   00:00:29.028
STREAM DIAGNOSTICS:
File            PID             Type            Codec           Language                Seconds                 Bitrate                 Bytes           Packets
----            ---             ----            -----           --------                --------------          --------------          -------------   -----
00003.M2TS      4113 (0x1011)   0x1B            AVC                                     29,947                  3 737                   13 989 181      76 454



QUICK SUMMARY:
Disc Title: XTC.Oranges & Lemons.2015.BDA1080p
Disc Size: 40 267 404 994 bytes
Protection: AACS
BD-Java: Yes
Playlist: 00003.MPLS
Size: 14 871 936 bytes
Length: 0:00:30.029
Total Bitrate: 3,96 Mbps
Video: MPEG-4 AVC Video / 3721 kbps / 1080p / 23,976 fps / 16:9 / High Profile 4.1


Скриншоты меню


Скриншоты видео

Источник (релизер): HDGeek

Об альбоме (сборнике)
Категория Музыка / Мультимедиа RSS лента
Добавлен (1 год, 1 месяц назад)
Просмотров 64 раз (a)
Взят 2 раз (a)
Файлы 99, 37.50 GB (40 267 404 994 байт)
Раздал ViKa  (Искать торренты)
Участники
Завершено: 0 (0)
Просматривают

« Extremities - Gaia - 2018, MP3, 320 kbps -†- ¿? -†- Abyssphere - На Пути К Забвению (Instrumental) (2017), FLAC (tracks), lossless »

:: Список Комментариев
Нет комментариев.

 Нет комментариев
Самые активные релизы за неделю
Музыка / Мультимедиа
Music News (Vol.105) ( Pop / 2021 )
  • Music News (Vol.105) ( Pop / 2021 )
  • Black Hole Trance Music (07-20) ( Trance / 2020 )
  • The Official UK Top 40 Singles Chart (02.10.2020) ( Pop / 2020 )
  • The Official UK Top 40 Singles Chart (25.09.2020) ( Pop / 2020 )
  • The Official UK Top 40 Singles Chart (17.07.2020) ( Pop / 2020 )
  • The Official UK Top 40 Singles Chart (10.07.2020) ( Pop / 2020 )
  • The Official UK Top 40 Singles Chart (04.09.2020) ( Pop / 2020 )
  • ЕвроХит Топ 40 Europa Plus (18.09.2020) ( Pop / 2020 )
  • ЕвроХит Топ 40 Europa Plus (18.06.2021) ( Pop / 2021 )
  • ЕвроХит Топ 40 Europa Plus (11.06.2021) ( Pop / 2021 )
  • ЕвроХит Топ 40 Europa Plus (28.05.2021) ( Pop / 2021 )
  • ЕвроХит Топ 40 Europa Plus (21.05.2021) ( Pop / 2021 )

Счетчики
Яндекс.Метрика Анализ сайта hit-muzik.ru

Поделится ссылкой