Привет, Гость

Войти на сайт
Регистрация
Восстановить Пароль

Наша группа в ВК

Копилка сайта

Правообладателям

Для удаления авторских файлов, пишите по адреcу: [email protected].
Чтобы ваше письмо не было проигнорировано и было обработано автоматической системой удаления авторских раздач, необходимо соблюдать правила оформления текста:
* Присылайте абсолютные адреса ссылок на торрент-раздачи (с табуляцией, с отступами)
* Ни pdf, ни doc файлы не читаются скриптом, за исключением rtf формата

Просьба это учесть при оформлении письма (ем).


Связанные раздачи
Загрузка / Обновление

:: Детали раздачи
Раздача является мультитрекерной — учтите, количество раздающих не будет совпадать с количеством участников на сайте (скачивание на клиентской стороне зависит от настроек µTorrent клиент программы, настройки -> Включить DHT, Обмен пирами и Поиск лок-х пиров).
Если висит надпись, пиры по нулям - не бойтесь, возможность скачать повторно раздачу - есть. Попробуйте, в случае отказа - прокоментируйте или нажмите на "Позвать скачавших".

Иванушки International - Лучшее (2003) [FLAC|Lossless]

Скачать Скачать торрент источник 1 Скачать архивом (основная ссылка)
Теги pop, 2003
Описание
Иванушки International - Лучшее (2003) [FLAC|Lossless]
Иванушки International - Лучшее (2003)
Год: 2003
Жанр: Pop
Продолжительность: 01:19:37

Кодек: FLAC (image+.cue)
Битрейт: Lossless
Тип битрейта: CBR

Треклист:
01. Безнадега точка ру (new) [3:46]
02. Золотые облака (new) [4:27]
03. Капелька света (new) [4:45]
04. Облако волос (new) [4:08]
05. Лодочка [4:12]
06. Фонари [4:39]
07. Тополиный пух [3:50]
08. Зачем вы девушки любите белобрысых [3:17]
09. Снегири [4:19]
10. Тучи [4:11]
11. Куклы [5:14]
12. Туман [3:38]
13. Девченка, девченочка [4:50]
14. Облака [4:32]
15. Ты где-то [4:23]
16. Два океана [3:50]
17. Колечко [3:49]
18. Письма лета [4:02]
19. Дальние моря (new) [3:46] Код: выделить все
Exact Audio Copy V0.99 prebeta 5 from 4. May 2009

Отчёт EAC об извлечении, выполненном 18. мая 2011, 10:32

Иванушки International / Лучшее

Дисковод: _NEC DVD_RW ND-4550A Adapter: 3 ID: 0

Режим чтения                 : Достоверность
Использование точного потока : Да
Отключение кэша аудио        : Да
Использование указателей C2  : Нет

Коррекция смещения при чтении                     : 48
Способность читать области Lead-in и Lead-out     : Нет
Заполнение пропущенных сэмплов тишиной            : Да
Удаление блоков с тишиной в начале и конце        : Нет
При вычислениях CRC использовались нулевые сэмплы : Да
Интерфейс                                         : Установленный внешний ASPI-интерфейс

Выходной формат : Внутренние WAV-операции
Формат сэмплов  : 44.100 Гц; 16 бит; стерео

TOC извлечённого CD

     Трек |   Старт  | Длительность | Начальный сектор | Конечный сектор
    ---------------------------------------------------------------------
       1  |  0:00.00 |    3:45.66   |           0      |      16940
       2  |  3:45.66 |    4:26.56   |       16941      |      36946
       3  |  8:12.47 |    4:44.43   |       36947      |      58289
       4  | 12:57.15 |    4:07.38   |       58290      |      76852
       5  | 17:04.53 |    4:11.58   |       76853      |      95735
       6  | 21:16.36 |    4:38.74   |       95736      |     116659
       7  | 25:55.35 |    3:50.00   |      116660      |     133909
       8  | 29:45.35 |    3:17.25   |      133910      |     148709
       9  | 33:02.60 |    4:19.34   |      148710      |     168168
      10  | 37:22.19 |    4:10.60   |      168169      |     186978
      11  | 41:33.04 |    5:14.32   |      186979      |     210560
      12  | 46:47.36 |    3:37.47   |      210561      |     226882
      13  | 50:25.08 |    4:50.27   |      226883      |     248659
      14  | 55:15.35 |    4:31.68   |      248660      |     269052
      15  | 59:47.28 |    4:23.06   |      269053      |     288783
      16  | 64:10.34 |    3:50.02   |      288784      |     306035
      17  | 68:00.36 |    3:49.27   |      306036      |     323237
      18  | 71:49.63 |    4:01.57   |      323238      |     341369
      19  | 75:51.45 |    3:45.64   |      341370      |     358308

Характеристики диапазона извлечения и сообщения об ошибках

Выбранный диапазон

     Имя файла E:\rip-flacmusic.ru\Иванушки International - Лучшее.wav

     Пиковый уровень 100.0 %
     Качество диапазона 100.0 %
     CRC копии 7027B7F0
     Копирование... OK

Ошибок не произошло

AccurateRip: сводка

Трек  1  нет в базе данных
Трек  2  нет в базе данных
Трек  3  нет в базе данных
Трек  4  нет в базе данных
Трек  5  нет в базе данных
Трек  6  нет в базе данных
Трек  7  нет в базе данных
Трек  8  нет в базе данных
Трек  9  нет в базе данных
Трек 10  нет в базе данных
Трек 11  нет в базе данных
Трек 12  нет в базе данных
Трек 13  нет в базе данных
Трек 14  нет в базе данных
Трек 15  нет в базе данных
Трек 16  нет в базе данных
Трек 17  нет в базе данных
Трек 18  нет в базе данных
Трек 19  нет в базе данных

Ни одного трека нет в базе AccurateRip

Конец отчёта
Категория Музыка / Мультимедиа RSS лента
Добавлен (9 месяцев назад)
Просмотров 188 раз (a)
Взят 9 раз (a)
Файлы 11, 504.43 MB (528 934 776 байт)
Раздал ViKa  (Искать торренты)
Участники
Завершено: 0 (0)
Просматривают

« Ewan Dobson - Discography ( 7 альбомов ) (2007-2013) [MP3|128-320 кб/с] -†- ¿? -†- Edwyn Collins - Understated (2013) [MP3|320 кб/с] »

:: Список Комментариев
Нет комментариев.

 Нет комментариев
Самые активные релизы за неделю
Музыка / Мультимедиа
The Official UK Top 40 Singles Chart (09.10.2020) ( Pop / 2020 )
  • The Official UK Top 40 Singles Chart (09.10.2020) ( Pop / 2020 )
  • The Official UK Top 40 Singles Chart (16.10.2020) ( Pop / 2020 )
  • The Official UK Top 40 Singles Chart (24.07.2020) ( Pop / 2020 )
  • The Official UK Top 40 Singles Chart (11.12.2020) ( Pop / 2020 )
  • The Official UK Top 40 Singles Chart (06.11.2020) ( Pop / 2020 )
  • The Official UK Top 40 Singles Chart (30.10.2020) ( Pop / 2020 )

Счетчики
Яндекс.Метрика Анализ сайта hit-muzik.ru

Поделится ссылкой