Привет, Гость

Войти на сайт
Регистрация
Восстановить Пароль

Наша группа в ВК

Копилка сайта

Правообладателям

Для удаления авторских файлов, пишите по адреcу: [email protected].
Чтобы ваше письмо не было проигнорировано и было обработано автоматической системой удаления авторских раздач, необходимо соблюдать правила оформления текста:
* Присылайте абсолютные адреса ссылок на торрент-раздачи (с табуляцией, с отступами)
* Ни pdf, ни doc файлы не читаются скриптом, за исключением rtf формата

Просьба это учесть при оформлении письма (ем).


Связанные раздачи
Загрузка / Обновление

:: Детали раздачи
Раздача является мультитрекерной — учтите, количество раздающих не будет совпадать с количеством участников на сайте (скачивание на клиентской стороне зависит от настроек µTorrent клиент программы, настройки -> Включить DHT, Обмен пирами и Поиск лок-х пиров).
Если висит надпись, пиры по нулям - не бойтесь, возможность скачать повторно раздачу - есть. Попробуйте, в случае отказа - прокоментируйте или нажмите на "Позвать скачавших".

Nick Drake - Pink Moon (1972) [FLAC|Lossless|tracks + .cue]

Скачать Скачать торрент источник 1 Скачать архивом (основная ссылка)
Теги folk rock, acoustic, folk
Описание
Nick Drake - Pink Moon (1972) [FLAC|Lossless|tracks + .cue]
Nick Drake - Pink Moon (1972)
Жанр: Folk Rock, Acoustic, Folk
Издание: Island Records ‎– 422 842 923-2
Продолжительность: 00:28:05

Кодек: FLAC
Битрейт: Lossless
Тип рипа: tracks + .cue

Треклист:
01. Pink Moon (2:03)
02. Place To Be (2:41)
03. Road (2:00)
04. Which Will (2:57)
05. Horn (1:21)
06. Things Behind The Sun (3:54)
07. Know (2:23)
08. Parasite (3:34)
09. Free Ride (3:04)
10. Harvest Breed (1:35)
11. From The Morning (2:32) Код: выделить все
REM GENRE Folk
REM DATE 1972
REM DISCID 8B06AE0B
REM COMMENT "ExactAudioCopy v0.99pb1"
PERFORMER "Nick Drake"
TITLE "1972 - Pink Moon"
FILE "01 - Pink Moon.flac" FLAC
  TRACK 01 AUDIO
    TITLE "Pink Moon"
    PERFORMER "Nick Drake"
    INDEX 01 00:00:00
FILE "02 - Place To Be.flac" FLAC
  TRACK 02 AUDIO
    TITLE "Place To Be"
    PERFORMER "Nick Drake"
    PREGAP 00:03:34
    INDEX 01 00:00:00
FILE "03 - Road.flac" FLAC
  TRACK 03 AUDIO
    TITLE "Road"
    PERFORMER "Nick Drake"
    PREGAP 00:01:73
    INDEX 01 00:00:00
FILE "04 - Which Will.flac" FLAC
  TRACK 04 AUDIO
    TITLE "Which Will"
    PERFORMER "Nick Drake"
    PREGAP 00:02:46
    INDEX 01 00:00:00
FILE "05 - Horn.flac" FLAC
  TRACK 05 AUDIO
    TITLE "Horn"
    PERFORMER "Nick Drake"
    PREGAP 00:01:48
    INDEX 01 00:00:00
FILE "06 - Things Behind The Sun.flac" FLAC
  TRACK 06 AUDIO
    TITLE "Things Behind The Sun"
    PERFORMER "Nick Drake"
    PREGAP 00:02:35
    INDEX 01 00:00:00
FILE "07 - Know.flac" FLAC
  TRACK 07 AUDIO
    TITLE "Know"
    PERFORMER "Nick Drake"
    PREGAP 00:02:65
    INDEX 01 00:00:00
FILE "08 - Parasite.flac" FLAC
  TRACK 08 AUDIO
    TITLE "Parasite"
    PERFORMER "Nick Drake"
    PREGAP 00:02:44
    INDEX 01 00:00:00
FILE "09 - Free Ride.flac" FLAC
  TRACK 09 AUDIO
    TITLE "Free Ride"
    PERFORMER "Nick Drake"
    PREGAP 00:02:22
    INDEX 01 00:00:00
FILE "10 - Harvest Breed.flac" FLAC
  TRACK 10 AUDIO
    TITLE "Harvest Breed"
    PERFORMER "Nick Drake"
    PREGAP 00:02:70
    INDEX 01 00:00:00
FILE "11 - From The Morning.flac" FLAC
  TRACK 11 AUDIO
    TITLE "From The Morning"
    PERFORMER "Nick Drake"
    PREGAP 00:02:34
    INDEX 01 00:00:00
Категория Музыка / Мультимедиа RSS лента
Добавлен (7 месяцев назад)
Просмотров 155 раз (a)
Взят 1 раз (a)
Файлы 18, 136.48 MB (143 110 245 байт)
Раздал ViKa  (Искать торренты)
Участники
Завершено: 0 (0)
Просматривают

« Brian Eno - Here Come The Warm Jets (1973) Remastered 2004 [FLAC|Lossless|tracks + .cue] -†- ¿? -†- Soen - Lotus (2019) [MP3|320 Kbps] »

:: Список Комментариев
Нет комментариев.

 Нет комментариев
Самые активные релизы за неделю
Музыка / Мультимедиа
The Official UK Top 40 Singles Chart (09.10.2020) ( Pop / 2020 )
  • The Official UK Top 40 Singles Chart (09.10.2020) ( Pop / 2020 )
  • The Official UK Top 40 Singles Chart (16.10.2020) ( Pop / 2020 )
  • The Official UK Top 40 Singles Chart (24.07.2020) ( Pop / 2020 )
  • The Official UK Top 40 Singles Chart (11.12.2020) ( Pop / 2020 )
  • The Official UK Top 40 Singles Chart (06.11.2020) ( Pop / 2020 )
  • The Official UK Top 40 Singles Chart (30.10.2020) ( Pop / 2020 )

Счетчики
Яндекс.Метрика Анализ сайта hit-muzik.ru

Поделится ссылкой