Привет, Гость

Войти на сайт
Регистрация
Восстановить Пароль

Наша группа в ВК

Копилка сайта

Правообладателям

Для удаления авторских файлов, пишите по адреcу: [email protected].
Чтобы ваше письмо не было проигнорировано и было обработано автоматической системой удаления авторских раздач, необходимо соблюдать правила оформления текста:
* Присылайте абсолютные адреса ссылок на торрент-раздачи (с табуляцией, с отступами)
* Ни pdf, ни doc файлы не читаются скриптом, за исключением rtf формата

Просьба это учесть при оформлении письма (ем).


Связанные раздачи
Загрузка / Обновление

:: Детали раздачи
Раздача является мультитрекерной — учтите, количество раздающих не будет совпадать с количеством участников на сайте (скачивание на клиентской стороне зависит от настроек µTorrent клиент программы, настройки -> Включить DHT, Обмен пирами и Поиск лок-х пиров).
Если висит надпись, пиры по нулям - не бойтесь, возможность скачать повторно раздачу - есть. Попробуйте, в случае отказа - прокоментируйте или нажмите на "Позвать скачавших".

John Prine - John Prine (1971) [FLAC|Lossless|tracks + .cue]

Скачать Скачать торрент источник 1 Скачать архивом (основная ссылка)
Теги rock, folk rock, country rock
Описание
John Prine - John Prine (1971) [FLAC|Lossless|tracks + .cue]
John Prine - John Prine (1971)
Жанр: Rock, Folk Rock, Country Rock
Издание: Atlantic ‎– 7567-81541-2
Источник: ссылка
Продолжительность: 00:44:05

Кодек: FLAC
Битрейт: Lossless
Тип рипа: tracks + .cue

Треклист:
01. Illegal Smile (3:14)
02. Spanish Pipedream (2:41)
03. Hello In There (4:30)
04. Sam Stone (4:15)
05. Paradise (3:13)
06. Pretty Good (3:37)
07. Your Flag Decal Won't Get You Into Heaven Anymore (2:53)
08. Far From Me (3:41)
09. Angel From Montgomery (3:45)
10. Quiet Man (2:52)
11. Donald And Lydia (4:28)
12. Six O'clock News (2:51)
13. Flashback Blues (2:32) Код: выделить все
REM GENRE Folk
REM DATE 1971
REM DISCID B20A710D
REM COMMENT "ExactAudioCopy v0.95b4"
PERFORMER "John Prine"
TITLE "John Prine"
FILE "01 - Illegal Smile.flac" FLAC
  TRACK 01 AUDIO
    TITLE "Illegal Smile"
    PERFORMER "John Prine"
    INDEX 01 00:00:00
  TRACK 02 AUDIO
    TITLE "Spanish Pipedream"
    PERFORMER "John Prine"
    INDEX 00 03:11:55
FILE "02 - Spanish Pipedream.flac" FLAC
    INDEX 01 00:00:00
  TRACK 03 AUDIO
    TITLE "Hello In There"
    PERFORMER "John Prine"
    INDEX 00 02:39:05
FILE "03 - Hello In There.flac" FLAC
    INDEX 01 00:00:00
  TRACK 04 AUDIO
    TITLE "Sam Stone"
    PERFORMER "John Prine"
    INDEX 00 04:28:03
FILE "04 - Sam Stone.flac" FLAC
    INDEX 01 00:00:00
  TRACK 05 AUDIO
    TITLE "Paradise"
    PERFORMER "John Prine"
    INDEX 00 04:13:10
FILE "05 - Paradise.flac" FLAC
    INDEX 01 00:00:00
  TRACK 06 AUDIO
    TITLE "Pretty Good"
    PERFORMER "John Prine"
    INDEX 00 03:10:52
FILE "06 - Pretty Good.flac" FLAC
    INDEX 01 00:00:00
  TRACK 07 AUDIO
    TITLE "Your Flag Decal Won't Get You Into Heaven Anymore"
    PERFORMER "John Prine"
    INDEX 00 03:34:55
FILE "07 - Your Flag Decal Won't Get You Into Heaven Anymore.flac" FLAC
    INDEX 01 00:00:00
  TRACK 08 AUDIO
    TITLE "Far From Me"
    PERFORMER "John Prine"
    INDEX 00 02:50:35
FILE "08 - Far From Me.flac" FLAC
    INDEX 01 00:00:00
  TRACK 09 AUDIO
    TITLE "Angel From Montgomery"
    PERFORMER "John Prine"
    INDEX 00 03:38:57
FILE "09 - Angel From Montgomery.flac" FLAC
    INDEX 01 00:00:00
  TRACK 10 AUDIO
    TITLE "Quiet Man"
    PERFORMER "John Prine"
    INDEX 00 03:42:40
FILE "10 - Quiet Man.flac" FLAC
    INDEX 01 00:00:00
  TRACK 11 AUDIO
    TITLE "Donald And Lydia"
    PERFORMER "John Prine"
    INDEX 00 02:50:02
FILE "11 - Donald And Lydia.flac" FLAC
    INDEX 01 00:00:00
  TRACK 12 AUDIO
    TITLE "Six O'clock News"
    PERFORMER "John Prine"
    INDEX 00 04:25:57
FILE "12 - Six O'clock News.flac" FLAC
    INDEX 01 00:00:00
  TRACK 13 AUDIO
    TITLE "Flashback Blues"
    PERFORMER "John Prine"
    INDEX 00 02:47:63
FILE "13 - Flashback Blues.flac" FLAC
    INDEX 01 00:00:00
Категория Музыка / Мультимедиа RSS лента
Добавлен (7 месяцев назад)
Просмотров 124 раз (a)
Взят 0 раз (a)
Файлы 18, 234.92 MB (246 332 098 байт)
Раздал ViKa  (Искать торренты)
Участники
Завершено: 0 (0)
Просматривают

« Randy Newman - Sail Away (1972) 2002, Rhino Records, Reprise Records [FLAC|Lossless|tracks + .cue] -†- ¿? -†- Gene Clark - White Light (1972) [FLAC|Lossless|tracks + .cue] »

:: Список Комментариев
Нет комментариев.

 Нет комментариев
Самые активные релизы за неделю
Музыка / Мультимедиа
The Official UK Top 40 Singles Chart (09.10.2020) ( Pop / 2020 )
  • The Official UK Top 40 Singles Chart (09.10.2020) ( Pop / 2020 )
  • The Official UK Top 40 Singles Chart (16.10.2020) ( Pop / 2020 )
  • The Official UK Top 40 Singles Chart (24.07.2020) ( Pop / 2020 )
  • The Official UK Top 40 Singles Chart (11.12.2020) ( Pop / 2020 )
  • The Official UK Top 40 Singles Chart (06.11.2020) ( Pop / 2020 )
  • The Official UK Top 40 Singles Chart (30.10.2020) ( Pop / 2020 )

Счетчики
Яндекс.Метрика Анализ сайта hit-muzik.ru

Поделится ссылкой