Привет, Гость

Войти на сайт
Регистрация
Восстановить Пароль

Наша группа в ВК

Копилка сайта

Правообладателям

Для удаления авторских файлов, пишите по адреcу: [email protected].
Чтобы ваше письмо не было проигнорировано и было обработано автоматической системой удаления авторских раздач, необходимо соблюдать правила оформления текста:
* Присылайте абсолютные адреса ссылок на торрент-раздачи (с табуляцией, с отступами)
* Ни pdf, ни doc файлы не читаются скриптом, за исключением rtf формата

Просьба это учесть при оформлении письма (ем).


Связанные раздачи
Загрузка / Обновление

:: Детали раздачи
Раздача является мультитрекерной — учтите, количество раздающих не будет совпадать с количеством участников на сайте (скачивание на клиентской стороне зависит от настроек µTorrent клиент программы, настройки -> Включить DHT, Обмен пирами и Поиск лок-х пиров).
Если висит надпись, пиры по нулям - не бойтесь, возможность скачать повторно раздачу - есть. Попробуйте, в случае отказа - прокоментируйте или нажмите на "Позвать скачавших".

Gene Clark - White Light (1972) [FLAC|Lossless|tracks + .cue]

Скачать Скачать торрент источник 1 Скачать архивом (основная ссылка)
Теги rock, folk rock, country rock
Описание
Gene Clark - White Light (1972) [FLAC|Lossless|tracks + .cue]
Gene Clark - White Light (1972)
Жанр: Rock, Folk Rock, Country Rock
Издание: A&M Records - 493 209-2
Источник: Discogs
Продолжительность: 00:51:49

Кодек: FLAC
Битрейт: Lossless
Тип рипа: tracks + .cue

Треклист:
01. The Virgin (3:39)
02. With Tomorrow (2:27)
03. White Light (3:40)
04. Because Of You (4:05)
05. One In A Hundred (3:35)
06. For A Spanish Guitar (5:01)
07. Where My Love Lies Asleep (4:22)
08. Tears Of Rage (4:15)
09. 1975 (3:55)
Bonus Tracks:
10. Because Of You (bonus track) (4:07)
11. Stand By Me (bonus track) (2:46)
12. Ship Of The Lord (bonus track) (2:34)
13. Opening Day (bonus track) (4:02)
14. Winter In (bonus track) (3:22) Код: выделить все
REM GENRE "Folk Rock"
REM DATE 1972
REM DISCID b50c240e
REM COMMENT "CUETools generated dummy CUE sheet"
PERFORMER "Gene Clark"
TITLE "Gene Clark (aka White Light)"
FILE "01 - The Virgin.flac" FLAC
  TRACK 01 AUDIO
    TITLE "The Virgin"
    PERFORMER "Gene Clark"
    INDEX 01 00:00:00
FILE "02 - With Tomorrow.flac" FLAC
  TRACK 02 AUDIO
    TITLE "With Tomorrow"
    PERFORMER "Gene Clark"
    INDEX 01 00:00:00
FILE "03 - White Light.flac" FLAC
  TRACK 03 AUDIO
    TITLE "White Light"
    PERFORMER "Gene Clark"
    INDEX 01 00:00:00
FILE "04 - Because Of You.flac" FLAC
  TRACK 04 AUDIO
    TITLE "Because Of You"
    PERFORMER "Gene Clark"
    INDEX 01 00:00:00
FILE "05 - One In A Hundred.flac" FLAC
  TRACK 05 AUDIO
    TITLE "One In A Hundred"
    PERFORMER "Gene Clark"
    INDEX 01 00:00:00
FILE "06 - For A Spanish Guitar.flac" FLAC
  TRACK 06 AUDIO
    TITLE "For A Spanish Guitar"
    PERFORMER "Gene Clark"
    INDEX 01 00:00:00
FILE "07 - Where My Love Lies Asleep.flac" FLAC
  TRACK 07 AUDIO
    TITLE "Where My Love Lies Asleep"
    PERFORMER "Gene Clark"
    INDEX 01 00:00:00
FILE "08 - Tears Of Rage.flac" FLAC
  TRACK 08 AUDIO
    TITLE "Tears Of Rage"
    PERFORMER "Gene Clark"
    INDEX 01 00:00:00
FILE "09 - 1975.flac" FLAC
  TRACK 09 AUDIO
    TITLE 1975
    PERFORMER "Gene Clark"
    INDEX 01 00:00:00
FILE "10 - Because Of You (bonus track).flac" FLAC
  TRACK 10 AUDIO
    TITLE "Because Of You (bonus track)"
    PERFORMER "Gene Clark"
    INDEX 01 00:00:00
FILE "11 - Stand By Me (bonus track).flac" FLAC
  TRACK 11 AUDIO
    TITLE "Stand By Me (bonus track)"
    PERFORMER "Gene Clark"
    INDEX 01 00:00:00
FILE "12 - Ship Of The Lord (bonus track).flac" FLAC
  TRACK 12 AUDIO
    TITLE "Ship Of The Lord (bonus track)"
    PERFORMER "Gene Clark"
    INDEX 01 00:00:00
FILE "13 - Opening Day (bonus track).flac" FLAC
  TRACK 13 AUDIO
    TITLE "Opening Day (bonus track)"
    PERFORMER "Unknown Performer"
    INDEX 01 00:00:00
FILE "14 - Winter In (bonus track).flac" FLAC
  TRACK 14 AUDIO
    TITLE "Winter In (bonus track)"
    PERFORMER "Unknown Performer"
    INDEX 01 00:00:00
Категория Музыка / Мультимедиа RSS лента
Добавлен (7 месяцев назад)
Просмотров 111 раз (a)
Взят 0 раз (a)
Файлы 24, 320.69 MB (336 263 210 байт)
Раздал ViKa  (Искать торренты)
Участники
Завершено: 0 (0)
Просматривают

« John Prine - John Prine (1971) [FLAC|Lossless|tracks + .cue] -†- ¿? -†- Don McLean - American Pie (1971) Limited Edition [FLAC|Lossless|tracks + .cue] »

:: Список Комментариев
Нет комментариев.

 Нет комментариев
Самые активные релизы за неделю
Музыка / Мультимедиа
The Official UK Top 40 Singles Chart (09.10.2020) ( Pop / 2020 )
  • The Official UK Top 40 Singles Chart (09.10.2020) ( Pop / 2020 )
  • The Official UK Top 40 Singles Chart (16.10.2020) ( Pop / 2020 )
  • The Official UK Top 40 Singles Chart (24.07.2020) ( Pop / 2020 )
  • The Official UK Top 40 Singles Chart (11.12.2020) ( Pop / 2020 )
  • The Official UK Top 40 Singles Chart (06.11.2020) ( Pop / 2020 )
  • The Official UK Top 40 Singles Chart (30.10.2020) ( Pop / 2020 )

Счетчики
Яндекс.Метрика Анализ сайта hit-muzik.ru

Поделится ссылкой