Привет, Гость

Войти на сайт
Регистрация
Восстановить Пароль

Наша группа в ВК

Копилка сайта

Правообладателям

Для удаления авторских файлов, пишите по адреcу: [email protected].
Чтобы ваше письмо не было проигнорировано и было обработано автоматической системой удаления авторских раздач, необходимо соблюдать правила оформления текста:
* Присылайте абсолютные адреса ссылок на торрент-раздачи (с табуляцией, с отступами)
* Ни pdf, ни doc файлы не читаются скриптом, за исключением rtf формата

Просьба это учесть при оформлении письма (ем).


Связанные раздачи
Загрузка / Обновление

:: Детали раздачи
Раздача является мультитрекерной — учтите, количество раздающих не будет совпадать с количеством участников на сайте (скачивание на клиентской стороне зависит от настроек µTorrent клиент программы, настройки -> Включить DHT, Обмен пирами и Поиск лок-х пиров).
Если висит надпись, пиры по нулям - не бойтесь, возможность скачать повторно раздачу - есть. Попробуйте, в случае отказа - прокоментируйте или нажмите на "Позвать скачавших".

Don McLean - American Pie (1971) Limited Edition [FLAC|Lossless|tracks + .cue]

Скачать Скачать торрент источник 1 Скачать архивом (основная ссылка)
Теги rock, folk rock
Описание
Don McLean - American Pie (1971) Limited Edition [FLAC|Lossless|tracks + .cue]
Don McLean - American Pie (1971) Limited Edition
Жанр: Rock, Folk Rock
Издание: Mobile Fidelity Sound Lab ‎– UDCD 728
Источник: Discogs
Продолжительность: 00:36:19

Кодек: FLAC
Битрейт: Lossless
Тип рипа: tracks + .cue

Треклист:
01. American Pie (8:39)
02. Till Tomorrow (2:16)
03. Vincent (Starry Starry Night) (4:06)
04. Crossroads (3:44)
05. Winterwood (3:14)
06. Empty Chairs (3:29)
07. Everybody Loves Me, Baby (3:38)
08. Sister Fatima (2:34)
09. The Grave (3:15)
10. Babylon (1:44) Код: выделить все
REM GENRE Rock
REM DATE 1971
REM DISCID 7A08970A
REM COMMENT "ExactAudioCopy v0.95b4"
CATALOG 0000000000000
PERFORMER "Don McLean"
TITLE "American Pie (MFSL)"
FILE "01 - American Pie.flac" FLAC
  TRACK 01 AUDIO
    TITLE "American Pie"
    PERFORMER "Don McLean"
    INDEX 01 00:00:00
  TRACK 02 AUDIO
    TITLE "Till Tomorrow"
    PERFORMER "Don McLean"
    INDEX 00 08:37:50
FILE "02 - Till Tomorrow.flac" FLAC
    INDEX 01 00:00:00
  TRACK 03 AUDIO
    TITLE "Vincent"
    PERFORMER "Don McLean"
    INDEX 00 02:13:48
FILE "03 - Vincent.flac" FLAC
    INDEX 01 00:00:00
  TRACK 04 AUDIO
    TITLE "Crossroads"
    PERFORMER "Don McLean"
    INDEX 00 04:03:10
FILE "04 - Crossroads.flac" FLAC
    INDEX 01 00:00:00
  TRACK 05 AUDIO
    TITLE "Winterwood"
    PERFORMER "Don McLean"
    INDEX 00 03:41:52
FILE "05 - Winterwood.flac" FLAC
    INDEX 01 00:00:00
  TRACK 06 AUDIO
    TITLE "Empty Chairs"
    PERFORMER "Don McLean"
    INDEX 00 03:11:55
FILE "06 - Empty Chairs.flac" FLAC
    INDEX 01 00:00:00
  TRACK 07 AUDIO
    TITLE "Everybody Loves Me, Baby"
    PERFORMER "Don McLean"
    INDEX 00 03:26:42
FILE "07 - Everybody Loves Me, Baby.flac" FLAC
    INDEX 01 00:00:00
  TRACK 08 AUDIO
    TITLE "Sister Fatima"
    PERFORMER "Don McLean"
    INDEX 00 03:35:15
FILE "08 - Sister Fatima.flac" FLAC
    INDEX 01 00:00:00
  TRACK 09 AUDIO
    TITLE "The Grave"
    PERFORMER "Don McLean"
    INDEX 00 02:31:70
FILE "09 - The Grave.flac" FLAC
    INDEX 01 00:00:00
  TRACK 10 AUDIO
    TITLE "Babylon"
    PERFORMER "Don McLean"
    INDEX 00 03:13:15
FILE "10 - Babylon.flac" FLAC
    INDEX 01 00:00:00
Категория Музыка / Мультимедиа RSS лента
Добавлен (7 месяцев назад)
Просмотров 128 раз (a)
Взят 2 раз (a)
Файлы 24, 218.40 MB (229 010 483 байт)
Раздал ViKa  (Искать торренты)
Участники
Завершено: 0 (0)
Просматривают

« Gene Clark - White Light (1972) [FLAC|Lossless|tracks + .cue] -†- ¿? -†- Marvin Gaye - What's Going On 1971 (2009) Limited Edition [FLAC|Lossless|tracks + .cue] »

:: Список Комментариев
Нет комментариев.

 Нет комментариев
Самые активные релизы за неделю
Музыка / Мультимедиа
The Official UK Top 40 Singles Chart (09.10.2020) ( Pop / 2020 )
  • The Official UK Top 40 Singles Chart (09.10.2020) ( Pop / 2020 )
  • The Official UK Top 40 Singles Chart (16.10.2020) ( Pop / 2020 )
  • The Official UK Top 40 Singles Chart (24.07.2020) ( Pop / 2020 )
  • The Official UK Top 40 Singles Chart (11.12.2020) ( Pop / 2020 )
  • The Official UK Top 40 Singles Chart (06.11.2020) ( Pop / 2020 )
  • The Official UK Top 40 Singles Chart (30.10.2020) ( Pop / 2020 )

Счетчики
Яндекс.Метрика Анализ сайта hit-muzik.ru

Поделится ссылкой